<?xml version="1.0" standalone="no"?>
<!DOCTYPE svg PUBLIC "-//W3C//DTD SVG 1.1//EN" "http://www.w3.org/Graphics/SVG/1.1/DTD/svg11.dtd" >
<svg xmlns="http://www.w3.org/2000/svg">
<metadata>Generated by IcoMoon</metadata>
<defs>
<font id="schkm" horiz-adv-x="1024">
<font-face units-per-em="1024" ascent="1024" descent="0" />
<missing-glyph horiz-adv-x="1024" />
<glyph unicode="&#x20;" horiz-adv-x="0" d="" />
<glyph unicode="&#xe900;" glyph-name="add" d="M486.417 213.333v597.333c0 14.138 11.443 25.583 25.583 25.583s25.583-11.445 25.583-25.583v-597.333c0-14.14-11.443-25.583-25.583-25.583s-25.583 11.443-25.583 25.583zM810.667 537.583c14.14 0 25.583-11.443 25.583-25.583s-11.443-25.583-25.583-25.583h-597.333c-14.138 0-25.583 11.443-25.583 25.583s11.445 25.583 25.583 25.583h597.333z" />
<glyph unicode="&#xe901;" glyph-name="add-circle" d="M682.667 486.4h-341.333c-14.080 0-25.6 11.52-25.6 25.6s11.52 25.6 25.6 25.6h341.333c14.080 0 25.6-11.52 25.6-25.6s-11.52-25.6-25.6-25.6zM512 315.733c-14.080 0-25.6 11.52-25.6 25.6v341.333c0 14.080 11.52 25.6 25.6 25.6s25.6-11.52 25.6-25.6v-341.333c0-14.080-11.52-25.6-25.6-25.6zM512 128c-211.627 0-384 172.373-384 384s172.373 384 384 384 384-172.373 384-384-172.373-384-384-384zM512 844.8c-183.467 0-332.8-149.333-332.8-332.8s149.333-332.8 332.8-332.8 332.8 149.333 332.8 332.8-149.333 332.8-332.8 332.8z" />
<glyph unicode="&#xe902;" glyph-name="arrow-down" d="M786.108 658.102c-10.001 9.997-26.21 9.997-36.207 0l-237.897-237.899-237.898 237.899c-9.997 9.997-26.206 9.997-36.204 0s-9.997-26.206 0-36.204l255.999-256.001c9.997-9.997 26.206-9.997 36.207 0l256 256.001c9.997 9.998 9.997 26.206 0 36.204z" />
<glyph unicode="&#xe903;" glyph-name="arrow-left" d="M658.099 786.102c9.997-9.997 9.997-26.206 0-36.204l-237.9-237.898 237.9-237.897c9.997-9.997 9.997-26.206 0-36.207-9.997-9.997-26.206-9.997-36.207 0l-255.998 256c-9.998 10.001-9.998 26.21 0 36.207l255.998 255.999c10.001 9.997 26.21 9.997 36.207 0z" />
<glyph unicode="&#xe904;" glyph-name="arrow-right" d="M365.902 786.102c-9.997-9.997-9.997-26.206 0-36.204l237.9-237.898-237.9-237.897c-9.997-9.997-9.997-26.206 0-36.207 9.998-9.997 26.207-9.997 36.204 0l256.002 256c9.997 10.001 9.997 26.21 0 36.207l-256.002 255.999c-9.997 9.997-26.206 9.997-36.204 0z" />
<glyph unicode="&#xe905;" glyph-name="arrow-up" d="M786.108 365.897c-10.001-9.997-26.21-9.997-36.207 0l-237.897 237.9-237.898-237.9c-9.997-9.997-26.206-9.997-36.204 0-9.997 10.001-9.997 26.21 0 36.207l255.999 255.999c9.997 9.997 26.206 9.997 36.207 0l256-255.999c9.997-9.997 9.997-26.206 0-36.207z" />
<glyph unicode="&#xe906;" glyph-name="backpack" d="M731.209 574.844c-0.009 123.35-98.509 222.75-219.209 222.75-120.694-0.004-219.2-99.403-219.209-222.75v-394.458c0.005-18.487 14.671-32.823 32-32.832h374.417c17.335 0 31.996 14.34 32 32.832v394.458zM782.417 180.386c-0.004-46.071-36.902-84.041-83.209-84.041h-374.417c-46.298 0.009-83.162 37.973-83.166 84.041v394.458c0.008 150.927 120.712 273.912 270.375 273.917 149.666 0 270.409-122.987 270.417-273.917v-394.458zM572.813 807.121v16.042c0 17.244-6.967 32.809-18.001 44-11.021 11.173-26.15 18.079-42.79 18.083-33.323 0-60.834-27.373-60.834-62.083v-16.042c0-14.138-11.443-25.625-25.583-25.625-14.138 0-25.583 11.487-25.583 25.625v16.042c0 62.291 49.707 113.25 112 113.25 31.147-0.004 59.217-12.969 79.292-33.333 20.062-20.362 32.708-48.667 32.708-79.916v-16.042c0-14.138-11.486-25.625-25.626-25.625-14.135 0.005-25.583 11.489-25.583 25.625zM731.563 518.477c0 42.837-25.515 83.469-67.917 114.501-42.278 30.938-98.317 49.833-151.667 49.833-53.030-0.003-108.98-19.744-151.375-51.709-42.567-32.099-68.288-73.85-68.292-116.833 0-14.14-11.444-25.626-25.583-25.626s-25.583 11.486-25.583 25.626c0.003 64.23 38.022 119.549 88.625 157.708 50.771 38.283 117.431 61.997 182.208 62 64.474 0 131.068-22.457 181.918-59.667 50.714-37.115 88.875-91.455 88.875-155.834-0.004-14.131-11.49-25.583-25.626-25.583-14.131 0.004-25.579 11.452-25.583 25.583zM817.583 371.349l-35.209 23.834v-159.957h3.209c17.34 0 32 14.34 32 32.832v103.292zM868.791 268.058c0-46.071-36.898-84.041-83.209-84.041h-28.791c-14.135 0-25.579 11.452-25.583 25.583v233.749c0 9.472 5.218 18.185 13.585 22.626 8.358 4.437 18.487 3.883 26.33-1.417l86.417-58.458c7.027-4.757 11.247-12.681 11.251-21.167v-116.877zM252.833 464.559c7.846 5.308 18.009 5.858 26.375 1.417 8.364-4.442 13.583-13.154 13.583-22.622v-233.754c-0.006-14.127-11.456-25.574-25.583-25.583h-28.834c-46.301 0.009-83.166 37.973-83.166 84.045v116.873c0.006 8.491 4.217 16.41 11.25 21.167l86.375 58.458zM206.375 268.062c0-18.492 14.668-32.828 32-32.836h3.209v159.919l-35.209-23.791v-103.292z" />
<glyph unicode="&#xe907;" glyph-name="book" d="M145.083 175.061c0 35.081 13.903 68.736 38.708 93.542 24.805 24.802 58.462 38.707 93.542 38.707h576c14.14 0 25.583-11.443 25.583-25.583s-11.443-25.583-25.583-25.583h-576c-21.5 0-42.13-8.546-57.333-23.753-15.203-15.202-23.75-35.831-23.75-57.331 0-14.14-11.445-25.583-25.583-25.583s-25.583 11.443-25.583 25.583zM853.333 947.311c14.14 0 25.583-11.445 25.583-25.583v-853.333c0-14.14-11.443-25.583-25.583-25.583h-576c-35.079 0-68.737 13.905-93.542 38.707-24.805 24.806-38.708 58.462-38.708 93.542v640c0 35.079 13.903 68.737 38.708 93.542s58.462 38.708 93.542 38.708h576zM196.25 175.061c0-21.5 8.547-42.129 23.75-57.335 15.203-15.202 35.833-23.748 57.333-23.748h550.417v802.167h-550.417c-21.5 0-42.13-8.547-57.333-23.75s-23.75-35.833-23.75-57.333v-640z" />
<glyph unicode="&#xe908;" glyph-name="camera-contained" d="M832 800h-110.899l-54.502 81.752c-2.923 4.383-6.878 7.977-11.524 10.462s-9.83 3.786-15.1 3.786h-255.998c-5.268 0-10.455-1.302-15.099-3.788s-8.603-6.080-11.525-10.464l-54.5-81.748h-110.852c-25.452-0.029-49.853-10.152-67.851-28.149s-28.121-42.399-28.149-67.851v-448c0.029-25.451 10.152-49.852 28.149-67.853 17.997-17.997 42.399-28.117 67.851-28.147h640c25.451 0.030 49.852 10.15 67.853 28.147 17.997 18.001 28.117 42.402 28.147 67.853v448c-0.030 25.452-10.15 49.853-28.147 67.851-18.001 17.997-42.402 28.121-67.853 28.149zM656 496c0-28.48-8.444-56.32-24.269-80-15.821-23.684-38.31-42.138-64.623-53.039-26.313-10.897-55.266-13.751-83.2-8.196-27.934 5.559-53.594 19.273-73.732 39.411s-33.853 45.798-39.409 73.732c-5.556 27.934-2.705 56.887 8.195 83.2s29.356 48.8 53.039 64.623c23.68 15.823 51.52 24.268 80 24.268 38.178-0.042 74.782-15.227 101.777-42.223 26.995-26.995 42.18-63.599 42.223-101.777z" />
<glyph unicode="&#xe909;" glyph-name="camera-filled" d="M629.76 464.213c0-67.865-55.015-122.88-122.88-122.88s-122.88 55.015-122.88 122.88c0 67.865 55.015 122.88 122.88 122.88s122.88-55.015 122.88-122.88zM877.227 738.56c-11.947 11.947-28.16 18.773-45.227 18.773h-128l-64 96h-256l-64-96h-128c-17.067 0-33.28-6.827-45.227-18.773s-18.773-28.16-18.773-45.227v-448c0-17.067 6.827-33.28 18.773-45.227s28.16-18.773 45.227-18.773h640c17.067 0 33.28 6.827 45.227 18.773s18.773 28.16 18.773 45.227v448c0 17.067-6.827 33.28-18.773 45.227zM506.88 256c-114.773 0-208.213 93.013-208.213 208.213s93.013 208.213 208.213 208.213 208.213-93.013 208.213-208.213-93.013-208.213-208.213-208.213z" />
<glyph unicode="&#xe90a;" glyph-name="camera-outlined" d="M832 792h-115.162l-56.836 85.32c-2.197 3.29-5.171 5.987-8.661 7.851s-7.386 2.835-11.341 2.829h-256c-3.956 0.006-7.852-0.966-11.341-2.829s-6.464-4.56-8.659-7.851l-56.88-85.32h-115.12c-23.339 0-45.722-9.271-62.225-25.775s-25.775-38.886-25.775-62.225v-448c0-23.339 9.271-45.722 25.775-62.225s38.886-25.775 62.225-25.775h640c23.339 0 45.722 9.271 62.225 25.775s25.775 38.886 25.775 62.225v448c0 23.339-9.271 45.722-25.775 62.225s-38.886 25.775-62.225 25.775zM872 256c0-10.607-4.215-20.783-11.716-28.284s-17.677-11.716-28.284-11.716h-640c-10.609 0-20.783 4.215-28.284 11.716s-11.716 17.677-11.716 28.284v448c0 10.609 4.214 20.783 11.716 28.284s17.676 11.716 28.284 11.716h128c3.956-0.006 7.852 0.966 11.341 2.829s6.464 4.56 8.659 7.851l56.84 85.32h230.279l56.879-85.32c2.197-3.29 5.171-5.987 8.661-7.851s7.386-2.835 11.341-2.829h128c10.607 0 20.783-4.214 28.284-11.716s11.716-17.676 11.716-28.284v-448zM512 664c-33.229 0-65.707-9.853-93.336-28.313-27.628-18.46-49.161-44.698-61.876-75.397s-16.042-64.478-9.56-97.067c6.482-32.589 22.483-62.524 45.978-86.016 23.495-23.497 53.428-39.497 86.017-45.978 32.589-6.485 66.368-3.157 97.067 9.557s56.939 34.249 75.396 61.875c18.462 27.631 28.314 60.109 28.314 93.338 0 44.557-17.698 87.287-49.207 118.794-31.505 31.506-74.236 49.206-118.793 49.206zM512 376c-23.735 0-46.933 7.036-66.667 20.224-19.735 13.184-35.116 31.927-44.199 53.854s-11.459 46.054-6.829 69.333c4.63 23.279 16.059 44.659 32.843 61.44 16.781 16.784 38.161 28.213 61.44 32.843s47.407 2.254 69.333-6.829c21.926-9.082 40.67-24.461 53.854-44.199 13.184-19.733 20.224-42.931 20.224-66.667 0-31.825-12.642-62.349-35.149-84.851-22.502-22.507-53.026-35.149-84.851-35.149z" />
<glyph unicode="&#xe90b;" glyph-name="cert-filled" d="M714.667 321.707v-128.427l48.213 27.307 5.12 2.56c11.947 5.12 25.6 4.267 37.12-2.56l48.213-27.307v128.427c-21.76-7.253-44.8-12.373-69.12-12.373s-47.36 5.12-69.12 12.373zM917.333 528.213c0-73.52-59.6-133.12-133.12-133.12s-133.12 59.6-133.12 133.12c0 73.52 59.6 133.12 133.12 133.12s133.12-59.6 133.12-133.12zM629.333 373.333c-39.68 39.68-64 94.293-64 154.453 0 120.747 97.707 218.453 218.453 218.453 40.96 0 78.933-11.947 111.787-31.573v42.24c0 8.533-3.413 16.64-9.387 22.613s-14.080 9.387-22.613 9.387h-703.573c-8.533 0-16.64-3.413-22.613-9.387s-9.387-14.080-9.387-22.613v-512c0-8.533 3.413-16.64 9.387-22.613s14.080-9.387 22.613-9.387h469.333v160zM480 456.107h-192c-13.227 0-23.893 10.667-23.893 23.893s10.667 23.893 23.893 23.893h192c13.227 0 23.893-10.667 23.893-23.893s-10.667-23.893-23.893-23.893zM480 584.107h-192c-13.227 0-23.893 10.667-23.893 23.893s10.667 23.893 23.893 23.893h192c13.227 0 23.893-10.667 23.893-23.893s-10.667-23.893-23.893-23.893z" />
<glyph unicode="&#xe90c;" glyph-name="cert-outlined" d="M984 512c0.030 35.571-8.725 70.605-25.489 101.978-16.764 31.375-41.020 58.125-70.609 77.872-29.585 19.747-63.595 31.881-98.999 35.323-35.409 3.442-71.117-1.914-103.953-15.592-32.841-13.678-61.79-35.255-84.284-62.813s-37.837-60.245-44.655-95.159c-6.822-34.914-4.915-70.972 5.547-104.969 10.466-34.001 29.167-64.887 54.443-89.92v-230.72c0-4.092 1.041-8.111 3.034-11.686 1.988-3.571 4.86-6.579 8.341-8.73 3.477-2.155 7.445-3.379 11.533-3.567 4.087-0.183 8.154 0.674 11.81 2.505l117.282 58.637 117.282-58.637c3.328-1.66 6.997-2.526 10.718-2.522 4.454-0.009 8.823 1.242 12.599 3.601 3.482 2.146 6.357 5.146 8.35 8.717 1.997 3.571 3.046 7.59 3.051 11.682v230.72c20.284 20.041 36.39 43.908 47.377 70.221s16.636 54.545 16.623 83.059zM600 512c0 33.229 9.852 65.707 28.314 93.336 18.458 27.628 44.698 49.161 75.396 61.876s64.478 16.042 97.067 9.56c32.589-6.482 62.524-22.483 86.016-45.978 23.497-23.495 39.497-53.428 45.978-86.017 6.485-32.589 3.157-66.368-9.557-97.067s-34.249-56.939-61.875-75.396c-27.631-18.462-60.109-28.314-93.338-28.314-44.557 0-87.287 17.698-118.793 49.207-31.509 31.505-49.207 74.236-49.207 118.793zM872 166.839l-93.282 46.639c-3.328 1.664-6.997 2.53-10.718 2.53s-7.39-0.866-10.718-2.53l-93.282-46.639v156.002c31.855-17.553 67.631-26.761 104-26.761s72.145 9.207 104 26.761v-156.002zM536 256c0-6.366-2.53-12.471-7.031-16.969-4.497-4.501-10.603-7.031-16.969-7.031h-352c-14.852 0-29.096 5.901-39.598 16.401-10.502 10.505-16.402 24.747-16.402 39.599v512c0 14.852 5.9 29.096 16.402 39.598s24.746 16.402 39.598 16.402h704c14.852 0 29.094-5.9 39.599-16.402 10.5-10.502 16.401-24.746 16.401-39.598 0-6.365-2.53-12.47-7.031-16.971-4.497-4.501-10.603-7.029-16.969-7.029s-12.471 2.528-16.969 7.029c-4.501 4.501-7.031 10.606-7.031 16.971 0 2.122-0.845 4.157-2.342 5.657-1.502 1.501-3.537 2.343-5.658 2.343h-704c-2.122 0-4.157-0.843-5.657-2.343s-2.343-3.535-2.343-5.657v-512c0-2.121 0.843-4.156 2.343-5.658 1.5-1.498 3.535-2.342 5.657-2.342h352c6.366 0 12.471-2.53 16.969-7.031 4.501-4.497 7.031-10.603 7.031-16.969zM472 480c0-6.366-2.53-12.471-7.031-16.969-4.497-4.501-10.603-7.031-16.969-7.031h-160c-6.365 0-12.47 2.53-16.971 7.031-4.501 4.497-7.029 10.603-7.029 16.969s2.528 12.471 7.029 16.969c4.501 4.501 10.606 7.031 16.971 7.031h160c6.366 0 12.471-2.53 16.969-7.031 4.501-4.497 7.031-10.603 7.031-16.969zM472 608c0-6.365-2.53-12.471-7.031-16.969-4.497-4.501-10.603-7.031-16.969-7.031h-160c-6.365 0-12.47 2.53-16.971 7.031-4.501 4.497-7.029 10.604-7.029 16.969s2.528 12.47 7.029 16.971c4.501 4.501 10.606 7.029 16.971 7.029h160c6.366 0 12.471-2.528 16.969-7.029 4.501-4.501 7.031-10.606 7.031-16.971z" />
<glyph unicode="&#xe90d;" glyph-name="check" d="M835.247 786.084c9.997 9.998 26.172 9.998 36.169 0s9.997-26.169 0-36.166l-469.334-469.333c-9.997-9.997-26.169-9.997-36.166 0l-213.333 213.333c-9.998 9.997-9.998 26.167 0 36.164 8.748 8.751 22.23 9.856 32.166 3.294l4-3.294 195.25-195.247 451.249 451.249z" />
<glyph unicode="&#xe90e;" glyph-name="clock" d="M913.084 512c0 221.503-179.58 401.083-401.084 401.083s-401.083-179.58-401.083-401.083c0-221.504 179.58-401.084 401.083-401.084s401.084 179.58 401.084 401.084zM964.25 512c0-249.779-202.47-452.25-452.25-452.25s-452.25 202.47-452.25 452.25c0 249.78 202.47 452.25 452.25 452.25s452.25-202.47 452.25-452.25zM486.417 768c0 14.138 11.443 25.583 25.583 25.583s25.583-11.445 25.583-25.583v-240.124l156.544-78.293 4.373-2.79c9.365-7.351 12.617-20.518 7.083-31.586-5.53-11.055-18.005-16.358-29.5-13.291l-4.877 1.835-170.667 85.333c-8.67 4.335-14.123 13.218-14.123 22.916v256z" />
<glyph unicode="&#xe90f;" glyph-name="close" d="M749.914 786.084c9.997 9.998 26.172 9.998 36.169 0s9.997-26.169 0-36.166l-512.001-512c-9.997-9.997-26.169-9.997-36.166 0s-9.998 26.167 0 36.164l511.999 512.002zM237.915 786.084c9.997 9.998 26.169 9.998 36.166 0l512.001-512.002 3.29-3.998c6.562-9.937 5.457-23.42-3.29-32.166-8.751-8.747-22.229-9.856-32.166-3.294l-4.002 3.294-511.999 512c-9.998 9.997-9.998 26.169 0 36.166z" />
<glyph unicode="&#xe910;" glyph-name="confirm" d="M512 981.333c-258.987 0-469.333-210.347-469.333-469.333s210.347-469.333 469.333-469.333 469.333 210.347 469.333 469.333-210.347 469.333-469.333 469.333zM448 300.373l-192 192 64 64 128-128 254.293 254.293 64-60.16-318.293-321.707z" />
<glyph unicode="&#xe911;" glyph-name="continue" d="M515.251 786.084c9.997 9.998 26.167 9.998 36.164 0l256-256.002c1.182-1.178 2.236-2.479 3.166-3.874 0.363-0.542 0.602-1.148 0.917-1.707 2.099-3.716 3.418-7.932 3.418-12.501 0-4.557-1.327-8.751-3.418-12.459-0.316-0.563-0.555-1.165-0.917-1.707-0.934-1.404-1.975-2.726-3.166-3.917l-256-256c-9.997-9.997-26.167-9.997-36.164 0s-9.997 26.167 0 36.164l212.331 212.335h-471.582c-14.138 0-25.583 11.443-25.583 25.583 0 12.369 8.754 22.694 20.417 25.084l5.167 0.499h471.582l-212.331 212.335-3.294 4c-6.562 9.937-5.457 23.418 3.294 32.166z" />
<glyph unicode="&#xe912;" glyph-name="coupon" d="M832.926 512c0 18.987 5.090 37.628 14.707 53.999s23.415 29.879 40 39.126l15.292 8.625c4.262 2.435 7.757 4.465 10.581 6.25 1.668 1.054 2.833 2.007 3.75 2.667 0.004 0.081 0.038 0.163 0.043 0.25 0.149 3.473-0.060 8.328-0.418 16.625v0.041c-3.315 79.308-14.101 120.46-42.334 148.625v0.042c-20.416 20.379-47.859 31.775-92.083 37.708-44.838 6.016-103.654 6.042-184.917 6.042h-171.081c-81.239 0-140.038-0.026-184.875-6.042-38.69-5.192-64.532-14.584-84.083-30.5l-8.042-7.25c-28.252-28.112-39.014-69.284-42.375-148.625-0.335-8.276-0.528-13.133-0.375-16.625 0.005-0.101-0.005-0.198 0-0.292 0.925-0.668 2.136-1.594 3.834-2.667 5.64-3.566 13.892-8.189 25.875-14.875h-0.042c16.585-9.247 30.425-22.751 40.042-39.126 9.615-16.371 14.667-35.012 14.667-53.999s-5.052-37.628-14.667-53.999c-9.616-16.371-23.459-29.837-40.042-39.083l0.042-0.043c-11.989-6.711-20.214-11.307-25.875-14.874-1.678-1.062-2.913-1.967-3.834-2.628-0.005-0.094 0.004-0.192 0-0.29-0.148-3.465 0.059-8.307 0.417-16.585v-0.043c3.316-79.36 14.117-120.546 42.333-148.663l0.042-0.043c20.414-20.369 47.837-31.774 92.042-37.709 44.837-6.016 103.656-6.042 184.916-6.042h171.081c81.237 0 140.041 0.026 184.879 6.042 44.228 5.935 71.68 17.361 92.122 37.751l5.129 5.414c24.474 27.977 34.099 68.826 37.248 143.211 0.337 8.277 0.529 13.133 0.375 16.623-0.004 0.115-0.038 0.226-0.043 0.333-0.922 0.661-2.133 1.579-3.793 2.628-5.653 3.567-13.884 8.162-25.873 14.874v0.043c-16.559 9.242-30.353 22.729-39.957 39.083-9.617 16.371-14.707 35.012-14.707 53.999zM875.593 512c0-11.388 3.063-22.558 8.832-32.375 4.326-7.364 10.035-13.794 16.832-18.876l7.168-4.625c11.546-6.46 20.988-11.721 27.831-16.038 3.452-2.18 6.814-4.484 9.711-6.878 2.039-1.685 4.527-3.989 6.75-6.959l2.125-3.209 0.038-0.081c3.913-6.972 4.791-14.276 5.043-20.041 0.252-5.734-0.030-12.757-0.333-20.25v-0.043c-3.383-79.881-14.050-136.422-54.916-177.084l-0.043 0.043c-29.687-29.606-67.605-43.226-116.54-49.792-48.333-6.485-110.511-6.46-190.545-6.46h-171.081c-80.057 0-142.249-0.026-190.583 6.46-48.937 6.566-86.873 20.173-116.542 49.792-35.695 35.575-48.366 83.285-53.208 148.207l-1.625 28.877c-0.324 7.501-0.662 14.511-0.416 20.25 0.249 5.786 1.133 13.073 5.041 20.041l2.125 3.209c2.237 3.017 4.748 5.35 6.792 7.040 2.904 2.402 6.255 4.698 9.708 6.878 6.848 4.318 16.292 9.579 27.833 16.038h0.042c9.947 5.547 18.231 13.679 24 23.501 5.763 9.818 8.791 20.992 8.791 32.375s-3.029 22.558-8.791 32.375c-5.769 9.822-14.053 17.954-24 23.501-11.569 6.455-21.014 11.703-27.875 16.038-3.457 2.189-6.811 4.48-9.708 6.878-2.723 2.253-6.239 5.606-8.833 10.166l-0.084 0.083c-3.911 6.972-4.788 14.274-5.041 20.042-0.252 5.732 0.071 12.795 0.375 20.292 3.382 79.878 14.051 136.419 54.917 177.083 29.686 29.594 67.615 43.185 116.541 49.75 48.334 6.485 110.506 6.458 190.542 6.458h171.081c80.060 0 142.251 0.026 190.583-6.458 48.943-6.567 86.874-20.172 116.544-49.792 40.794-40.695 51.533-97.137 54.874-177.041h-0.043c0.329-7.523 0.666-14.553 0.418-20.292-0.247-5.791-1.135-13.076-5.043-20.042-2.594-4.621-6.153-7.996-8.875-10.249-2.897-2.406-6.251-4.693-9.707-6.878-6.861-4.335-16.32-9.591-27.874-16.038-9.95-5.547-18.231-13.679-24-23.501-5.769-9.818-8.832-20.988-8.832-32.375zM624.934 655.084c8.333 8.332 21.837 8.332 30.17 0 8.329-8.331 8.329-21.836 0-30.167l-256.001-256c-8.332-8.333-21.836-8.333-30.167 0s-8.331 21.837 0 30.165l255.999 256.001zM661.333 405.333c0-11.315-4.497-22.17-12.497-30.17s-18.854-12.497-30.17-12.497c-11.315 0-22.17 4.497-30.17 12.497s-12.497 18.854-12.497 30.17c0 11.315 4.497 22.17 12.497 30.17s18.854 12.497 30.17 12.497c11.315 0 22.17-4.497 30.17-12.497s12.497-18.854 12.497-30.17zM448 618.667c0-11.316-4.497-22.17-12.497-30.17s-18.854-12.497-30.17-12.497c-11.316 0-22.168 4.497-30.17 12.497s-12.497 18.854-12.497 30.17c0 11.316 4.495 22.168 12.497 30.17s18.854 12.497 30.17 12.497c11.316 0 22.17-4.495 30.17-12.497s12.497-18.854 12.497-30.17z" />
<glyph unicode="&#xe913;" glyph-name="date" d="M870.417 758.167c-0.004 8.754-2.091 13.62-3.874 16.375-1.873 2.882-4.523 5.092-7.834 6.792-3.422 1.751-7.138 2.766-10.21 3.292-1.481 0.253-2.671 0.365-3.375 0.416-0.341 0.025-0.559 0.040-0.623 0.042h-665.293c-8.186 0-12.65-2.029-15.167-3.75-2.704-1.85-4.882-4.555-6.625-8.125-1.786-3.665-2.799-7.668-3.333-10.959-0.257-1.583-0.404-2.853-0.458-3.625-0.026-0.372-0.039-0.615-0.042-0.708v-577.415c0.002-8.755 2.089-13.623 3.875-16.375 1.873-2.884 4.52-5.094 7.833-6.793 3.42-1.754 7.136-2.765 10.208-3.29 1.48-0.256 2.673-0.367 3.375-0.418 0.344-0.026 0.56-0.038 0.625-0.043h665.292c8.183 0 12.651 2.031 15.168 3.75 2.705 1.852 4.881 4.557 6.622 8.124 1.788 3.665 2.799 7.667 3.337 10.961 0.256 1.583 0.405 2.85 0.457 3.622 0.013 0.188 0.034 0.341 0.043 0.461v577.665zM921.583 179.085c-0.021-0.678-0.051-1.574-0.124-2.628-0.149-2.095-0.461-4.919-1.003-8.247-1.062-6.554-3.221-15.706-7.834-25.169-4.655-9.549-12.1-19.964-23.791-27.955-11.883-8.124-26.628-12.668-44.041-12.668h-667.042c-0.685 0.021-1.572 0.090-2.625 0.166-2.097 0.154-4.933 0.431-8.25 0.998-6.521 1.118-15.59 3.405-24.958 8.209-9.485 4.864-19.649 12.531-27.375 24.418-7.808 12.011-12.123 26.82-12.125 44.292v579.082c0.022 0.678 0.052 1.575 0.125 2.625 0.146 2.097 0.46 4.922 1 8.25 1.065 6.554 3.223 15.706 7.833 25.167 4.655 9.549 12.101 19.965 23.792 27.958 11.882 8.123 26.63 12.667 44.042 12.667h667.043c0.683-0.023 1.57-0.090 2.624-0.167 2.099-0.154 4.932-0.433 8.252-1 6.519-1.116 15.59-3.405 24.956-8.209 9.485-4.865 19.652-12.531 27.375-24.416 7.808-12.013 12.126-26.821 12.126-44.292v-579.082zM896 622.917c14.14 0 25.583-11.445 25.583-25.583 0-14.14-11.443-25.583-25.583-25.583h-768c-14.138 0-25.583 11.443-25.583 25.583 0 14.138 11.445 25.583 25.583 25.583h768zM280.208 739.556v170.667c0 14.138 11.445 25.583 25.583 25.583s25.583-11.445 25.583-25.583v-170.667c0-14.138-11.445-25.583-25.583-25.583s-25.583 11.445-25.583 25.583zM706.876 739.556v170.667c0 14.138 11.443 25.583 25.583 25.583s25.583-11.445 25.583-25.583v-170.667c0-14.138-11.443-25.583-25.583-25.583s-25.583 11.445-25.583 25.583z" />
<glyph unicode="&#xe914;" glyph-name="delete" d="M426.667 800v-10.667h170.667v10.667c0 22.632-8.99 44.337-24.994 60.34s-37.709 24.994-60.339 24.994c-22.63 0-44.335-8.99-60.339-24.994s-24.994-37.708-24.994-60.34zM373.333 789.333v10.667c0 36.777 14.609 72.047 40.614 98.052s61.274 40.614 98.052 40.614c36.779 0 72.047-14.609 98.052-40.614s40.614-61.276 40.614-98.052v-10.667h240c7.074 0 13.854-2.81 18.854-7.811 5.005-5.001 7.812-11.784 7.812-18.856s-2.807-13.855-7.812-18.856c-5.001-5.001-11.78-7.811-18.854-7.811h-62.229l-42.667-508.928c-3.243-38.647-20.885-74.667-49.434-100.919s-65.916-40.819-104.7-40.819h-239.275c-38.78 0.004-76.143 14.575-104.687 40.828-28.544 26.249-46.184 62.268-49.425 100.911l-42.667 508.928h-62.251c-7.072 0-13.855 2.81-18.856 7.811s-7.811 11.784-7.811 18.856c0 7.072 2.81 13.855 7.811 18.856s11.784 7.811 18.856 7.811h240zM291.392 231.531c2.124-25.318 13.681-48.917 32.382-66.116s43.181-26.748 68.589-26.748h239.275c25.412-0.004 49.899 9.54 68.604 26.739 18.705 17.203 30.263 40.802 32.388 66.125l42.283 504.469h-525.824l42.304-504.469zM458.667 592c0 3.503-0.691 6.97-2.031 10.205s-3.302 6.175-5.781 8.651c-2.475 2.476-5.414 4.441-8.649 5.781-3.238 1.34-6.703 2.030-10.206 2.030s-6.97-0.69-10.205-2.030c-3.235-1.34-6.175-3.305-8.651-5.781s-4.441-5.416-5.781-8.651c-1.34-3.235-2.030-6.702-2.030-10.205v-309.333c0-3.503 0.69-6.967 2.030-10.206 1.34-3.234 3.305-6.174 5.781-8.649 2.476-2.479 5.416-4.442 8.651-5.781s6.702-2.031 10.205-2.031c3.503 0 6.967 0.691 10.206 2.031 3.234 1.34 6.174 3.302 8.649 5.781 2.479 2.475 4.442 5.414 5.781 8.649 1.34 3.238 2.031 6.703 2.031 10.206v309.333zM592 618.667c14.72 0 26.667-11.947 26.667-26.667v-309.333c0-7.074-2.807-13.854-7.812-18.854-5.001-5.005-11.78-7.812-18.854-7.812s-13.854 2.807-18.854 7.812c-5.005 5.001-7.812 11.78-7.812 18.854v309.333c0 14.72 11.947 26.667 26.667 26.667z" />
<glyph unicode="&#xe915;" glyph-name="download" d="M327.032 566.985c-4.441 4.514-6.918 10.598-6.894 16.93 0.025 6.327 2.551 12.395 7.027 16.872s10.541 7.005 16.872 7.031c6.331 0.026 12.417-2.45 16.931-6.89l127.032-126.999v390.071c0 6.365 2.53 12.47 7.031 16.971 4.497 4.501 10.603 7.029 16.969 7.029s12.471-2.528 16.969-7.029c4.501-4.501 7.031-10.606 7.031-16.971v-390.067l127.031 126.999c2.231 2.228 4.877 3.996 7.787 5.201 2.914 1.206 6.033 1.826 9.186 1.825s6.272-0.622 9.186-1.829c2.91-1.207 5.555-2.975 7.782-5.204 2.231-2.229 3.998-4.877 5.201-7.787 1.207-2.914 1.826-6.033 1.826-9.186s-0.623-6.272-1.826-9.182c-1.207-2.914-2.978-5.559-5.205-7.787l-168-167.962c-0.397-0.393-0.858-0.67-1.271-1.037-0.329-0.277-0.666-0.555-1.011-0.823-0.977-0.768-2.018-1.459-3.106-2.061l-0.393-0.209c-1.293-0.691-2.65-1.259-4.049-1.698h-0.004c-4.621-1.596-9.647-1.596-14.268 0-1.404 0.439-2.761 1.007-4.053 1.698l-0.393 0.209c-1.088 0.602-2.129 1.293-3.106 2.061-0.346 0.269-0.683 0.542-1.011 0.823-0.414 0.363-0.879 0.644-1.271 1.041l-168 167.957zM864 440c-6.366 0-12.471-2.53-16.969-7.031-4.501-4.497-7.031-10.603-7.031-16.969v-224c-0.004-2.121-0.849-4.156-2.347-5.653s-3.533-2.342-5.653-2.347h-640c-2.121 0.004-4.154 0.849-5.653 2.347s-2.344 3.533-2.347 5.653v224c0 6.366-2.528 12.471-7.029 16.969-4.501 4.501-10.606 7.031-16.971 7.031s-12.47-2.53-16.971-7.031c-4.501-4.497-7.029-10.603-7.029-16.969v-224c0.017-14.848 5.923-29.082 16.421-39.578 10.499-10.5 24.733-16.405 39.579-16.422h640c14.848 0.017 29.082 5.922 39.578 16.422 10.5 10.496 16.405 24.73 16.422 39.578v224c0 6.366-2.53 12.471-7.031 16.969-4.497 4.501-10.603 7.031-16.969 7.031z" />
<glyph unicode="&#xe916;" glyph-name="edit" d="M850.833 114.057l5.167-0.499c11.657-2.394 20.416-12.719 20.416-25.084s-8.759-22.69-20.416-25.084l-5.167-0.499h-722.833c-14.138 0-25.583 11.443-25.583 25.583 0 14.135 11.445 25.583 25.583 25.583h722.833zM672.358 896.467c40.943 40.943 107.055 40.943 147.998 0l47.876-47.875c40.943-40.943 40.943-107.057 0-148l-431.211-431.208c-3.072-3.076-6.861-5.346-11.040-6.541l-223.625-63.919c-8.94-2.556-18.55-0.034-25.125 6.541s-9.097 16.188-6.542 25.126l63.917 223.625c1.195 4.181 3.468 7.966 6.542 11.042l431.21 431.209zM784.149 860.3c-20.945 20.928-54.639 20.927-75.584 0l-426.542-426.5-49.417-172.915 172.916 49.417 426.541 426.499c20.928 20.945 20.928 54.639 0 75.583l-47.915 47.917zM608.666 832.768c9.997 9.997 26.167 9.997 36.164 0l159.71-159.667c9.997-9.997 9.997-26.211 0-36.208s-26.21-9.998-36.207 0l-159.667 159.708c-9.997 9.998-9.997 26.17 0 36.167z" />
<glyph unicode="&#xe917;" glyph-name="email" d="M919.753 803.26c-0.026 0.2-0.060 0.4-0.094 0.6-0.213 1.339-0.542 2.657-0.981 3.94-0.060 0.18-0.128 0.36-0.196 0.536-0.478 1.294-1.067 2.544-1.762 3.736-0.098 0.165-0.196 0.329-0.299 0.492-0.751 1.216-1.609 2.364-2.56 3.428-0.064 0.072-0.102 0.156-0.166 0.224s-0.137 0.112-0.196 0.176c-0.981 1.041-2.048 1.995-3.191 2.848-0.154 0.112-0.303 0.228-0.452 0.336-1.139 0.802-2.342 1.504-3.597 2.096-0.162 0.076-0.307 0.156-0.469 0.228-1.259 0.56-2.564 1.010-3.904 1.344l-0.491 0.128c-1.314 0.299-2.654 0.486-4.002 0.56l-0.657 0.032c-0.243 0.008-0.486 0.036-0.734 0.036h-768c-0.252 0-0.496-0.028-0.748-0.040-0.212-0.004-0.424-0.016-0.636-0.032-1.351-0.073-2.693-0.26-4.012-0.56l-0.48-0.124c-1.344-0.334-2.655-0.785-3.92-1.348-0.152-0.068-0.3-0.148-0.456-0.22-1.259-0.594-2.463-1.297-3.6-2.1-0.152-0.108-0.3-0.224-0.448-0.336-1.148-0.852-2.217-1.806-3.196-2.848-0.064-0.064-0.136-0.108-0.196-0.176-0.064-0.068-0.104-0.152-0.168-0.224-0.954-1.064-1.81-2.211-2.56-3.428l-0.3-0.488c-0.692-1.194-1.282-2.445-1.76-3.74l-0.2-0.532c-0.438-1.283-0.766-2.601-0.98-3.94-0.032-0.204-0.068-0.4-0.092-0.604-0.156-1.080-0.239-2.169-0.248-3.26v-544c0.017-14.848 5.923-29.082 16.421-39.578 10.499-10.5 24.733-16.405 39.579-16.422h704c14.848 0.017 29.082 5.922 39.578 16.422 10.5 10.496 16.405 24.73 16.422 39.578v544c-0.009 1.091-0.094 2.18-0.247 3.26zM872 278.558l-254.665 233.442 254.665 233.44v-466.882zM152 745.44l254.664-233.44-254.664-233.442v466.882zM512 480.559l-322.3 295.441h644.6l-322.3-295.441zM442.185 479.441l53.598-49.135c4.429-4.058 10.214-6.306 16.218-6.306 6.007 0 11.793 2.249 16.222 6.306l53.598 49.135 252.48-231.441h-644.6l252.485 231.441z" />
<glyph unicode="&#xe918;" glyph-name="enlarge" d="M856 832v-192c0-6.365-2.53-12.47-7.031-16.971-4.497-4.501-10.603-7.029-16.969-7.029s-12.471 2.528-16.969 7.029c-4.501 4.501-7.031 10.606-7.031 16.971v134.060l-183.031-183.033c-4.514-4.437-10.598-6.916-16.93-6.891-6.332 0.030-12.395 2.556-16.875 7.031-4.476 4.48-7.002 10.544-7.027 16.875-0.021 6.331 2.453 12.416 6.895 16.929l183.027 183.028h-134.059c-6.366 0-12.471 2.528-16.969 7.029-4.501 4.501-7.031 10.606-7.031 16.971s2.53 12.47 7.031 16.971c4.497 4.501 10.603 7.029 16.969 7.029h192c1.485-0.004 2.97-0.146 4.429-0.424 0.073-0.016 0.149-0.020 0.218-0.036 1.425-0.284 2.825-0.698 4.173-1.236 0.102-0.040 0.201-0.068 0.303-0.112 1.361-0.562 2.662-1.248 3.895-2.048 0.081-0.056 0.175-0.1 0.265-0.16 2.658-1.769 4.937-4.049 6.707-6.708 0.055-0.080 0.098-0.168 0.149-0.252 0.802-1.234 1.489-2.54 2.052-3.9l0.115-0.304c0.538-1.349 0.951-2.744 1.237-4.168l0.034-0.236c0.277-1.456 0.418-2.934 0.422-4.416zM399.032 432.973l-183.032-183.031v134.059c0 6.366-2.528 12.471-7.029 16.969-4.501 4.501-10.606 7.031-16.971 7.031s-12.47-2.53-16.971-7.031c-4.501-4.497-7.029-10.603-7.029-16.969v-192c0.005-1.481 0.147-2.961 0.424-4.416 0.012-0.081 0.020-0.158 0.036-0.235 0.284-1.425 0.698-2.82 1.236-4.169 0.040-0.102 0.068-0.201 0.112-0.303 0.562-1.361 1.249-2.667 2.052-3.904 0.052-0.077 0.096-0.166 0.152-0.252 1.77-2.658 4.052-4.941 6.712-6.711 0.080-0.055 0.172-0.098 0.26-0.158 1.231-0.802 2.534-1.485 3.892-2.044l0.308-0.115c1.348-0.538 2.743-0.951 4.168-1.237 0.076-0.013 0.156-0.017 0.232-0.034 1.456-0.277 2.934-0.418 4.416-0.422h192c6.365 0 12.47 2.53 16.971 7.031 4.501 4.497 7.029 10.603 7.029 16.969s-2.528 12.471-7.029 16.969c-4.501 4.501-10.606 7.031-16.971 7.031h-134.060l183.028 183.027c4.442 4.514 6.916 10.598 6.895 16.93-0.026 6.332-2.551 12.395-7.027 16.875-4.48 4.476-10.543 7.002-16.874 7.031-6.331 0.026-12.417-2.453-16.931-6.891z" />
<glyph unicode="&#xe919;" glyph-name="error" d="M511.996 977.456c-92.058 0-182.048-27.299-258.592-78.443s-136.202-123.839-171.431-208.89c-35.229-85.051-44.447-178.639-26.487-268.926 17.96-90.291 62.29-173.227 127.385-238.323 65.095-65.092 148.031-109.423 238.321-127.381 90.289-17.963 183.878-8.742 268.925 26.483 85.052 35.23 157.747 94.891 208.892 171.435s78.443 166.532 78.443 258.59c0 61.124-12.041 121.652-35.43 178.123s-57.677 107.783-100.898 151.004c-43.221 43.221-94.532 77.507-151.006 100.898-56.469 23.392-116.996 35.431-178.121 35.431zM731.226 358.865l-65.63-65.626-153.6 153.135-153.134-153.6-66.095 66.091 153.599 153.135-153.599 153.136 66.095 66.095 153.134-153.6 153.135 153.135 65.63-65.629-153.135-153.136 153.6-153.135z" />
<glyph unicode="&#xe91a;" glyph-name="external-link" d="M213.329 742.4c-15.842 0-31.036-6.293-42.238-17.495s-17.495-26.396-17.495-42.238v-469.334c0-15.842 6.293-31.036 17.495-42.236 11.202-11.204 26.396-17.498 42.238-17.498h469.333c15.842 0 31.036 6.293 42.24 17.498 11.2 11.2 17.493 26.394 17.493 42.236v256c0 14.14 11.46 25.6 25.6 25.6s25.6-11.46 25.6-25.6v-256c0-29.423-11.686-57.638-32.491-78.443s-49.020-32.491-78.443-32.491h-469.333c-29.421 0-57.638 11.686-78.442 32.491s-32.492 49.020-32.492 78.443v469.334c0 29.421 11.688 57.638 32.492 78.441s49.021 32.492 78.442 32.492h256c14.14 0 25.6-11.462 25.6-25.6s-11.46-25.6-25.6-25.6h-256zM614.396 896c0 14.138 11.46 25.6 25.6 25.6h256c14.14 0 25.6-11.462 25.6-25.6v-256c0-14.138-11.46-25.6-25.6-25.6s-25.6 11.462-25.6 25.6v230.4h-230.4c-14.14 0-25.6 11.462-25.6 25.6zM914.099 914.102c9.997-9.997 9.997-26.206 0-36.204l-469.333-469.335c-9.997-9.997-26.208-9.997-36.205 0-9.998 10.001-9.998 26.21 0 36.207l469.332 469.332c10.001 9.997 26.21 9.997 36.207 0z" />
<glyph unicode="&#xe91b;" glyph-name="eye" d="M989.239 525.001c-1.404 3.157-35.277 78.303-110.609 153.639-100.339 100.348-227.123 153.392-366.63 153.392s-266.291-53.040-366.627-153.388c-75.336-75.34-109.212-150.49-110.616-153.647-1.818-4.092-2.757-8.521-2.757-12.996s0.939-8.905 2.757-12.996c1.408-3.162 35.28-78.289 110.62-153.617 100.336-100.322 227.112-153.357 366.623-153.357s266.287 53.035 366.626 153.357c75.337 75.328 109.21 150.451 110.618 153.617 1.818 4.092 2.756 8.521 2.756 12.996s-0.939 8.905-2.756 12.996l-0.004 0.004zM512 256.026c-123.119 0-230.695 44.745-319.739 132.988-36.594 36.314-67.735 77.739-92.452 122.987 24.716 45.252 55.856 86.689 92.452 123.015 89.044 88.264 196.624 133.016 319.739 133.016s230.699-44.752 319.74-133.016c36.599-36.325 67.742-77.759 92.459-123.015-28.855-53.803-154.47-255.962-412.198-255.962v-0.013zM512 703.999c-37.973 0-75.093-11.261-106.669-32.358-31.574-21.097-56.183-51.084-70.715-86.165-14.532-35.085-18.334-73.69-10.926-110.933s25.695-71.458 52.547-98.308c26.851-26.85 61.063-45.137 98.307-52.548 37.244-7.407 75.849-3.605 110.933 10.927s65.071 39.142 86.165 70.716c21.099 31.573 32.358 68.698 32.358 106.671-0.055 50.901-20.305 99.706-56.299 135.7s-84.796 56.241-135.701 56.299zM512 384c-25.314 0-50.061 7.505-71.113 21.572-21.049 14.063-37.455 34.057-47.143 57.442-9.688 23.39-12.223 49.126-7.284 73.958 4.939 24.828 17.13 47.633 35.031 65.536 17.903 17.901 40.708 30.092 65.536 35.031 24.832 4.939 50.569 2.404 73.958-7.284 23.386-9.688 43.379-26.094 57.442-47.143 14.067-21.052 21.572-45.798 21.572-71.113-0.038-33.937-13.538-66.47-37.534-90.466s-56.529-37.495-90.466-37.534z" />
<glyph unicode="&#xe91c;" glyph-name="eye-closed" d="M923.55 372.749c2.133-3.639 3.529-7.667 4.1-11.849s0.307-8.435-0.768-12.514c-1.079-4.079-2.957-7.906-5.517-11.26-2.564-3.349-5.769-6.165-9.421-8.273-3.657-2.112-7.693-3.477-11.874-4.019-4.186-0.546-8.439-0.256-12.51 0.849-4.075 1.105-7.889 3.008-11.221 5.594-3.337 2.586-6.127 5.803-8.213 9.472l-73.527 127.356c-43.324-29.013-90.961-50.991-141.154-65.114l23.253-131.857c1.472-8.358-0.435-16.96-5.303-23.91-4.868-6.955-12.301-11.686-20.655-13.163-1.847-0.324-3.721-0.486-5.598-0.486-7.514 0.009-14.788 2.667-20.544 7.501-5.751 4.834-9.626 11.537-10.931 18.94l-22.874 129.711c-52.373-7.65-105.579-7.633-157.948 0.055l-22.871-129.707c-1.306-7.403-5.175-14.114-10.93-18.948-5.755-4.838-13.028-7.492-20.546-7.505-1.875 0-3.746 0.162-5.592 0.486-8.358 1.476-15.789 6.208-20.657 13.163-4.868 6.95-6.776 15.552-5.303 23.91l23.256 131.913c-50.131 14.144-97.712 36.126-140.98 65.126l-73.96-128.102c-2.072-3.695-4.858-6.942-8.194-9.549-3.337-2.611-7.158-4.531-11.242-5.653-4.084-1.118-8.351-1.421-12.552-0.879s-8.253 1.907-11.921 4.028c-3.668 2.116-6.879 4.941-9.447 8.311-2.568 3.366-4.442 7.211-5.512 11.311-1.071 4.096-1.318 8.367-0.726 12.561s2.010 8.226 4.174 11.87l77.988 135.078c-27.201 23.411-52.214 49.25-74.728 77.197-2.677 3.264-4.683 7.027-5.9 11.072-1.217 4.042-1.622 8.286-1.191 12.486s1.688 8.274 3.7 11.986c2.012 3.712 4.739 6.989 8.024 9.643s7.062 4.63 11.114 5.817c4.052 1.187 8.299 1.56 12.496 1.098s8.261-1.75 11.958-3.79c3.697-2.040 6.953-4.791 9.583-8.096 24.988-31.094 53.507-59.182 84.98-83.694 0.252-0.175 0.48-0.375 0.724-0.559 78.1-60.762 174.461-93.312 273.406-92.356 98.923-0.951 195.26 31.582 273.348 92.318 0.213 0.158 0.41 0.324 0.627 0.478 31.531 24.542 60.105 52.668 85.133 83.813 5.359 6.531 13.077 10.679 21.478 11.54s16.802-1.633 23.373-6.941c6.571-5.307 10.778-12.996 11.699-21.391 0.926-8.395-1.506-16.815-6.767-23.424-22.558-28.002-47.625-53.884-74.884-77.333l77.547-134.31z" />
<glyph unicode="&#xe91d;" glyph-name="face-id" d="M302.507 558.507v90.88c0 14.080 11.52 25.6 25.6 25.6s25.6-11.52 25.6-25.6v-90.88c0-14.080-11.52-25.6-25.6-25.6s-25.6 11.52-25.6 25.6zM690.773 558.507v90.88c0 14.080 11.52 25.6 25.6 25.6s25.6-11.52 25.6-25.6v-90.88c0-14.080-11.52-25.6-25.6-25.6s-25.6 11.52-25.6 25.6zM504.747 491.52v159.147c0 14.080 11.52 25.6 25.6 25.6s25.6-11.52 25.6-25.6v-159.147c0-23.040-4.693-45.227-20.907-61.44s-38.4-20.907-61.44-20.907c-14.080 0-25.6 11.52-25.6 25.6s11.52 25.6 25.6 25.6c17.067 0 23.040 3.84 25.173 5.973s5.973 8.107 5.973 25.173zM631.893 328.107c10.667 8.96 26.88 7.68 35.84-3.413 8.96-10.667 7.68-26.88-3.413-35.84-40.107-33.28-97.707-48.64-152.747-48.64-51.627 0-105.387 13.227-145.067 42.667l-7.68 5.973-3.413 3.84c-7.253 9.387-7.68 22.613 0 32.427 8.107 9.387 21.333 11.947 31.573 6.4l4.267-2.987 5.547-4.267c28.16-20.907 70.4-32.427 114.347-32.427 47.36 0 91.733 13.227 119.893 36.693zM77.653 736.853v47.787c0 50.773 10.24 93.44 39.253 122.453s71.68 39.253 122.453 39.253h47.787c14.080 0 25.6-11.52 25.6-25.6s-11.52-25.6-25.6-25.6h-47.787c-45.653 0-71.253-9.387-86.187-24.32s-24.32-40.533-24.32-86.187v-47.787c0-14.080-11.52-25.6-25.6-25.6s-25.6 11.52-25.6 25.6zM77.653 239.36v47.787c0 14.080 11.52 25.6 25.6 25.6s25.6-11.52 25.6-25.6v-47.787c0-45.653 9.387-71.253 24.32-86.187s40.533-24.32 86.187-24.32h52.907c11.52-2.987 20.48-13.227 20.48-25.6 0-14.080-11.52-25.6-25.6-25.6h-47.787c-50.773 0-93.44 10.24-122.453 39.253s-39.253 71.68-39.253 122.453zM895.147 239.36v47.787c0 14.080 11.52 25.6 25.6 25.6s25.6-11.52 25.6-25.6v-47.787c0-50.773-10.24-93.44-39.253-122.453s-71.68-39.253-122.453-39.253h-47.787c-14.080 0-25.6 11.52-25.6 25.6s11.52 25.6 25.6 25.6h47.787c45.653 0 71.253 9.387 86.187 24.32s24.32 40.533 24.32 86.187zM895.147 736.853v47.787c0 45.653-9.387 71.253-24.32 86.187s-40.533 24.32-86.187 24.32h-47.787c-14.080 0-25.6 11.52-25.6 25.6s11.52 25.6 25.6 25.6h47.787c50.773 0 93.44-10.24 122.453-39.253s39.253-71.68 39.253-122.453v-47.787c0-14.080-11.52-25.6-25.6-25.6s-25.6 11.52-25.6 25.6z" />
<glyph unicode="&#xe91e;" glyph-name="fb" d="M597.333 450.854h106.667l42.667 170.666h-149.333v85.333c0 43.947 0 85.333 85.333 85.333h64v143.36c-13.909 1.835-66.432 5.973-121.899 5.973-115.84 0-198.101-70.699-198.101-200.533v-119.467h-128v-170.666h128v-362.667h170.667v362.667z" />
<glyph unicode="&#xe91f;" glyph-name="flag-filled" d="M896 808.687v-480c0-4.966-1.156-9.869-3.379-14.31-2.223-4.446-5.449-8.307-9.421-11.29-60.57-45.419-118.481-61.713-173.722-61.713-74.982 0-145.033 30.020-210.086 57.903-106.848 45.794-199.7 85.525-307.392 12.877v-175.467c0-8.486-3.372-16.627-9.373-22.626-6.001-6.003-14.141-9.374-22.627-9.374s-16.626 3.371-22.627 9.374c-6.001 5.999-9.373 14.14-9.373 22.626v672c0 0.228 0.028 0.44 0.032 0.668 0.025 1.087 0.101 2.172 0.228 3.252 0.064 0.504 0.148 1.004 0.232 1.504 0.091 0.55 0.197 1.099 0.316 1.644 0.1 0.448 0.22 0.892 0.344 1.332 0.152 0.56 0.304 1.12 0.488 1.668 0.144 0.44 0.312 0.88 0.48 1.316 0.2 0.52 0.392 1.032 0.616 1.536 0.208 0.48 0.444 0.94 0.68 1.408 0.22 0.44 0.44 0.88 0.68 1.308 0.28 0.504 0.588 0.992 0.896 1.48 0.24 0.376 0.472 0.752 0.724 1.116 0.346 0.491 0.706 0.971 1.080 1.44 0.268 0.348 0.536 0.692 0.82 1.024 0.372 0.44 0.768 0.864 1.168 1.288 0.332 0.352 0.668 0.7 1.020 1.040 0.372 0.36 0.768 0.708 1.16 1.056 0.422 0.371 0.855 0.731 1.296 1.080 0.184 0.14 0.348 0.3 0.54 0.44 142.784 107.092 270.828 52.236 383.799 3.816 111.070-47.6 207.002-88.716 320.201-3.812 4.753 3.566 10.406 5.737 16.324 6.271 5.922 0.534 11.87-0.591 17.186-3.249s9.788-6.743 12.911-11.799c3.123-5.055 4.779-10.88 4.779-16.823v-0.004z" />
<glyph unicode="&#xe920;" glyph-name="flag-outline" d="M853.333 367.061c17.476-17.476 18.074-18.091 18.082-18.125l-0.542-0.542c-0.226-0.218-0.512-0.461-0.832-0.751-0.644-0.585-1.472-1.318-2.5-2.167-2.069-1.702-4.941-3.891-8.666-6.374-7.471-4.979-18.389-11.132-33.374-17.122-30.020-12.011-75.951-23.168-142.835-23.168-69.615 0-127.296 23.351-180.169 44.501-53.794 21.517-102.779 40.832-161.165 40.832-61.114 0-100.517-10.176-123.833-19.499-11.673-4.672-19.425-9.19-23.959-12.211-2.255-1.502-3.732-2.658-4.5-3.29-0.351-0.29-0.564-0.486-0.625-0.542l0.333 0.333-0.042 0.043c-7.319-7.305-18.278-9.536-27.833-5.585-9.566 3.964-15.792 13.312-15.792 23.667v512c0 6.79 2.699 13.282 7.5 18.083l18.083-18.083c-17.476 17.476-18.076 18.091-18.083 18.125l0.542 0.542c0.229 0.218 0.515 0.46 0.833 0.75 0.645 0.587 1.473 1.321 2.5 2.167 2.068 1.703 4.942 3.891 8.667 6.375 7.468 4.979 18.389 11.13 33.375 17.125 30.017 12.007 75.948 23.167 142.833 23.167 69.614 0 127.296-23.352 180.169-44.5 53.794-21.519 102.78-40.833 161.165-40.833 61.116 0 100.518 10.173 123.831 19.5 11.674 4.669 19.426 9.187 23.962 12.208 2.253 1.503 3.729 2.66 4.497 3.292 0.354 0.289 0.567 0.487 0.627 0.541l-0.333-0.333c7.317 7.302 18.321 9.495 27.874 5.542 9.566-3.962 15.791-13.312 15.791-23.666v-512c0-6.788-2.701-13.282-7.501-18.082l-18.082 18.082zM341.333 896.145c-61.114 0-100.517-10.173-123.833-19.5-9.644-3.857-16.561-7.695-21.25-10.583v-454.874c0.745 0.307 1.484 0.653 2.25 0.956 30.017 12.006 75.948 23.168 142.833 23.168 69.614 0 127.296-23.351 180.169-44.501 53.794-21.517 102.78-40.832 161.165-40.832 61.116 0 100.518 10.172 123.831 19.499 9.66 3.866 16.563 7.735 21.252 10.628v454.873c-0.751-0.309-1.481-0.692-2.249-1-30.020-12.007-75.951-23.167-142.835-23.167-69.615 0-127.296 23.352-180.169 44.5-53.794 21.519-102.779 40.833-161.165 40.833zM145.083 68.395v298.667c0 14.14 11.445 25.583 25.583 25.583s25.583-11.443 25.583-25.583v-298.667c0-14.14-11.445-25.583-25.583-25.583s-25.583 11.443-25.583 25.583z" />
<glyph unicode="&#xe921;" glyph-name="flash-filled" d="M389.637 32c-5.361-0.004-10.659 1.165-15.52 3.426s-9.168 5.559-12.618 9.664c-3.45 4.105-5.96 8.913-7.352 14.093-1.393 5.175-1.635 10.594-0.709 15.876v0.222l56.22 308.719h-217.66c-6.042 0-11.959 1.711-17.070 4.937-5.11 3.221-9.203 7.825-11.805 13.278s-3.609 11.529-2.902 17.532c0.707 5.999 3.098 11.674 6.897 16.375l438.341 541.878c4.988 6.333 11.917 10.858 19.721 12.883s16.055 1.437 23.497-1.672c7.437-3.109 13.653-8.57 17.698-15.546 4.041-6.976 5.687-15.084 4.685-23.085 0-0.6-0.162-1.18-0.26-1.78l-56.418-308.8h217.617c6.042 0 11.959-1.711 17.071-4.935 5.107-3.223 9.203-7.827 11.806-13.28s3.61-11.53 2.901-17.53c-0.708-6-3.098-11.679-6.899-16.377l-438.398-541.879c-3.445-4.352-7.827-7.872-12.82-10.295s-10.469-3.691-16.020-3.703z" />
<glyph unicode="&#xe922;" glyph-name="flash-outline" d="M634.338 968.644c3.243 0.011 6.468-0.502 9.54-1.5l3.042-1.125 2.876-1.5c1.86-1.082 3.614-2.342 5.205-3.791l2.295-2.333 1.997-2.542c1.246-1.748 2.317-3.614 3.166-5.583l1.126-3.042 0.794-3.167c0.623-3.164 0.73-6.41 0.333-9.625-0.060-0.485-0.124-0.977-0.209-1.458l-57.835-316.333h225.335c9.856 0 18.829-5.649 23.083-14.542 4.245-8.895 3.025-19.455-3.166-27.127l-438.668-542.080c-2.725-3.409-6.094-6.246-10-8.209-4.215-2.121-8.867-3.204-13.583-3.209-4.417-0.004-8.784 0.934-12.791 2.79-4.022 1.869-7.604 4.608-10.458 8-2.851 3.392-4.934 7.386-6.083 11.669-1.145 4.275-1.352 8.764-0.583 13.124l0.042 0.124 57.542 316.292h-225.333c-9.859 0-18.83 5.649-23.084 14.541-4.246 8.896-3.026 19.456 3.167 27.123l438.542 541.96c2.697 3.405 6.084 6.222 9.958 8.209l3.251 1.458c3.349 1.246 6.908 1.86 10.5 1.875zM389.587 51.81v0zM245.628 424.644h202.376c7.59 0 14.801-3.341 19.665-9.165 4.864-5.828 6.861-13.534 5.5-21.001l-48.374-266.001 353.582 437.001h-202.372c-7.595 0-14.805 3.375-19.669 9.207-4.851 5.828-6.857 13.5-5.5 20.958l48.627 266.334-353.834-437.333z" />
<glyph unicode="&#xe923;" glyph-name="focus" d="M788.126 512.009c-0.004 152.489-123.635 276.123-276.126 276.123-152.489-0.003-276.122-123.636-276.125-276.123 0-152.495 123.634-276.126 276.125-276.126 152.495 0 276.126 123.631 276.126 276.126zM839.334 512.009c0-180.774-146.564-327.334-327.334-327.334-180.768 0.004-327.292 146.564-327.292 327.334 0.003 180.764 146.526 327.287 327.292 327.29 180.77 0 327.33-146.524 327.334-327.29zM614.417 512c0 56.555-45.862 102.417-102.417 102.417s-102.417-45.862-102.417-102.417c0-56.555 45.862-102.417 102.417-102.417s102.417 45.862 102.417 102.417zM665.583 512c0-84.83-68.753-153.583-153.583-153.583s-153.583 68.753-153.583 153.583c0 84.83 68.753 153.583 153.583 153.583s153.583-68.753 153.583-153.583zM486.396 76.186v201.165c0.009 14.127 11.46 25.574 25.583 25.583 14.131 0 25.617-11.452 25.626-25.583v-201.165c-0.004-14.135-11.49-25.583-25.626-25.583-14.127 0.009-25.579 11.452-25.583 25.583zM277.354 537.6l5.125-0.542c11.664-2.381 20.45-12.672 20.458-25.041 0-12.373-8.788-22.699-20.458-25.084l-5.125-0.542h-201.167c-14.138 0-25.583 11.49-25.583 25.626 0.009 14.131 11.45 25.583 25.583 25.583h201.167zM947.814 537.6l5.163-0.542c11.652-2.389 20.412-12.681 20.42-25.041 0-12.365-8.759-22.69-20.42-25.084l-5.163-0.542h-201.126c-14.14 0-25.626 11.49-25.626 25.626 0.009 14.131 11.494 25.583 25.626 25.583h201.126zM486.396 746.685v201.125c0 14.133 11.452 25.574 25.583 25.583 14.14 0 25.626-11.444 25.626-25.583v-201.125c0-14.138-11.486-25.625-25.626-25.625-14.131 0.010-25.583 11.493-25.583 25.625z" />
<glyph unicode="&#xe924;" glyph-name="follow" d="M238.327 712.501c65.098 65.526 171.348 65.402 236.749 0 65.455-65.465 65.463-171.287 0-236.751-65.46-65.459-171.284-65.455-236.749 0-65.464 65.463-65.464 171.287 0 236.751zM438.869 676.293c-45.504 45.504-119.261 45.407-164.25 0.083l-0.083-0.083c-45.469-45.469-45.469-118.865 0-164.335 45.47-45.457 118.867-45.466 164.334 0 45.466 45.47 45.461 118.865 0 164.335zM628.937 143.552c0 150.123-122.086 272.239-272.207 272.252-150.152 0-272.25-121.719-272.25-272.252-0.011-14.127-11.451-25.583-25.583-25.583s-25.572 11.456-25.583 25.583c0 178.859 145.035 323.418 323.417 323.418 178.396-0.009 323.373-145.020 323.373-323.418-0.009-14.127-11.452-25.583-25.583-25.583s-25.57 11.456-25.583 25.583zM656.572 903.602c88.333 13.664 171.379-44.525 189.751-131l1.583-8.458v-0.125c14.106-91.18-48.324-176.733-139.418-191.334h-0.124c-91.179-14.106-176.734 48.325-191.334 139.417l-0.043 0.125c-14.106 91.182 48.363 176.738 139.46 191.334l0.124 0.041zM797.321 756.060c-10.155 63.351-69.649 106.701-132.915 96.917l-0.043 0.042c-63.266-10.228-106.53-69.742-96.751-132.959 10.214-63.223 69.585-106.48 132.753-96.791 63.309 10.144 106.667 69.569 96.956 132.791zM681.822 611.184c143.65 0 265.020-93.164 307.627-222.375 4.42-13.427-2.867-27.908-16.294-32.333-13.419-4.425-27.9 2.876-32.333 16.29-35.9 108.868-138.116 187.251-258.999 187.251-0.043 0-0.119 0-0.209 0-0.265-0.004-0.713-0.021-1.331-0.043-1.267-0.038-3.247-0.154-5.833-0.333-5.184-0.354-12.783-1.075-22.042-2.543-18.624-2.948-43.452-8.806-68.71-20.373-12.855-5.888-28.070-0.23-33.958 12.625-5.875 12.847-0.218 28.028 12.625 33.916 30.63 14.029 60.237 20.966 82.044 24.417 10.94 1.732 20.062 2.598 26.539 3.042 3.238 0.222 5.824 0.358 7.667 0.417 0.922 0.029 1.673 0.033 2.21 0.042h0.998z" />
<glyph unicode="&#xe925;" glyph-name="global" d="M913.084 495.061c0 221.503-179.58 401.083-401.084 401.083s-401.083-179.581-401.083-401.083c0-221.504 179.58-401.084 401.083-401.084s401.084 179.58 401.084 401.084zM964.25 495.061c0-249.779-202.47-452.25-452.25-452.25s-452.25 202.47-452.25 452.25c0 249.78 202.47 452.25 452.25 452.25s452.25-202.47 452.25-452.25zM938.667 520.644c14.14 0 25.583-11.443 25.583-25.583s-11.443-25.583-25.583-25.583h-853.333c-14.138 0-25.583 11.443-25.583 25.583s11.445 25.583 25.583 25.583h853.333zM512.004 947.311c7.194 0 14.067-3.024 18.918-8.334 110.895-121.414 173.905-278.974 177.331-443.375 0.009-0.354 0.009-0.73 0-1.084-3.426-164.399-66.436-321.963-177.331-443.375-4.851-5.312-11.725-8.333-18.918-8.333-7.189 0-14.067 3.021-18.914 8.333-110.897 121.412-173.908 278.976-177.335 443.375-0.007 0.354-0.007 0.73 0 1.084 3.427 164.4 66.438 321.961 177.335 443.375 4.847 5.31 11.725 8.334 18.914 8.334zM512.004 882.769c-90.656-108.879-141.999-245.507-145.082-387.708 3.083-142.191 54.439-278.793 145.082-387.665 90.645 108.873 141.961 245.474 145.041 387.665-3.081 142.201-54.383 278.829-145.041 387.708z" />
<glyph unicode="&#xe926;" glyph-name="home" d="M838.417 599.881l-326.417 253.875-326.417-253.875v-417.708c0-13.952 5.552-27.341 15.417-37.21 9.865-9.865 23.257-15.411 37.208-15.415h547.584c13.952 0.004 27.341 5.551 37.21 15.415 9.865 9.869 15.415 23.258 15.415 37.21v417.708zM889.583 182.174c0-27.533-10.91-53.948-30.374-73.417-19.469-19.469-45.888-30.413-73.417-30.417h-547.584c-27.531 0.004-53.949 10.948-73.417 30.417-19.466 19.469-30.375 45.884-30.375 73.417v430.207c0 7.9 3.64 15.358 9.875 20.209l351.998 273.792 3.627 2.375c8.794 4.71 19.708 3.909 27.793-2.375l352-273.792c6.234-4.85 9.873-12.309 9.873-20.209v-430.207zM603.75 103.936v365.542h-183.5v-365.542c-0.008-14.131-11.45-25.583-25.583-25.583s-25.576 11.452-25.583 25.583v391.125c0 14.14 11.445 25.583 25.583 25.583h234.667c14.14 0 25.583-11.443 25.583-25.583v-391.125c-0.009-14.131-11.447-25.583-25.583-25.583s-25.574 11.452-25.583 25.583z" />
<glyph unicode="&#xe927;" glyph-name="ig" d="M512 704c-37.973 0-75.093-11.261-106.67-32.358-31.574-21.097-56.183-51.084-70.715-86.166-14.532-35.085-18.334-73.69-10.926-110.933s25.694-71.454 52.546-98.308c26.852-26.85 61.064-45.137 98.307-52.544 37.244-7.411 75.849-3.61 110.933 10.923 35.081 14.532 65.067 39.142 86.165 70.716 21.099 31.578 32.358 68.698 32.358 106.671-0.051 50.906-20.297 99.711-56.294 135.706-35.994 35.995-84.8 56.241-135.706 56.294zM512 384c-25.314 0-50.065 7.505-71.113 21.572-21.050 14.063-37.456 34.057-47.144 57.442-9.688 23.39-12.223 49.126-7.284 73.958 4.939 24.828 17.13 47.637 35.031 65.537 17.9 17.901 40.709 30.092 65.537 35.031 24.832 4.939 50.569 2.404 73.958-7.284 23.386-9.688 43.379-26.094 57.442-47.144 14.067-21.047 21.572-45.798 21.572-71.113 0-33.946-13.487-66.505-37.491-90.509s-56.563-37.491-90.509-37.491zM704 928h-384c-59.389-0.064-116.327-23.684-158.322-65.678s-65.615-98.933-65.678-158.322v-384c0.064-59.388 23.684-116.326 65.678-158.323 41.995-41.993 98.933-65.613 158.322-65.677h384c59.388 0.064 116.326 23.684 158.323 65.677 41.993 41.997 65.613 98.935 65.677 158.323v384c-0.064 59.389-23.684 116.327-65.677 158.322-41.997 41.994-98.935 65.615-158.323 65.678zM864 320c0-42.436-16.858-83.132-46.865-113.135-30.003-30.007-70.699-46.865-113.135-46.865h-384c-42.435 0-83.131 16.858-113.137 46.865-30.006 30.003-46.863 70.699-46.863 113.135v384c0 42.435 16.857 83.131 46.863 113.137s70.703 46.863 113.137 46.863h384c42.436 0 83.132-16.857 113.135-46.863 30.007-30.006 46.865-70.703 46.865-113.137v-384zM768 720c0-9.493-2.816-18.774-8.090-26.668s-12.77-14.046-21.542-17.679c-8.768-3.633-18.419-4.584-27.733-2.732-9.31 1.852-17.865 6.423-24.576 13.136s-11.285 15.266-13.137 24.577c-1.852 9.311-0.9 18.962 2.731 27.733 3.635 8.771 9.788 16.268 17.681 21.542s17.173 8.090 26.667 8.090c12.732 0 24.939-5.057 33.941-14.059s14.059-21.211 14.059-33.941z" />
<glyph unicode="&#xe928;" glyph-name="image-filled" d="M314.88 596.48h0.427c6.827 7.253 15.36 12.8 24.32 16.64l6.827 2.56c6.827 2.133 14.507 3.413 21.76 3.413 9.813 0 19.627-2.133 28.587-5.547 8.96-3.84 17.067-9.387 24.32-16.213l168.96-168.107 72.107 71.68c14.080 14.080 32.853 21.76 52.907 21.76s37.973-7.68 52.053-21.333v0s129.28-123.307 129.28-123.307v421.973c0 17.493-14.507 32-32 32h-704.427c-17.493 0-32-14.507-32-32v-396.8l186.88 192.853zM669.44 725.333c35.413 0 64-28.587 64-64s-28.587-64-64-64-64 28.587-64 64 28.587 64 64 64zM891.307 264.96l-3.413 2.987-173.227 165.547-64.427-64.427 168.96-167.68 2.987-3.413s2.133-3.84 2.987-5.547h38.4c17.493 0 32 14.507 32 32v38.4s-3.413 1.28-4.693 2.56zM563.2 334.933s-2.987 1.707-4.267 2.987c-1.28 1.28-1.707 2.987-2.56 4.267l-188.16 186.88-230.827-238.507c-2.56-2.987-5.973-4.693-9.387-6.4v-59.733c0-17.493 14.507-32 32-32h547.413l-143.787 142.933z" />
<glyph unicode="&#xe929;" glyph-name="image-outlined" d="M864 856h-704c-14.847-0.017-29.081-5.923-39.579-16.421s-16.404-24.733-16.421-39.579v-576c0.017-14.848 5.923-29.082 16.421-39.578 10.499-10.5 24.733-16.405 39.579-16.422h704c14.848 0.017 29.082 5.922 39.578 16.422 10.5 10.496 16.405 24.73 16.422 39.578v576c-0.017 14.847-5.922 29.081-16.422 39.579-10.496 10.498-24.73 16.404-39.578 16.421zM160 808h704c2.121-0.002 4.156-0.846 5.653-2.345 1.502-1.5 2.347-3.534 2.347-5.655v-454.059l-128.401 128.397c-10.509 10.487-24.751 16.375-39.595 16.375-14.848 0-29.086-5.888-39.595-16.375l-82.748-82.739c-1.502-1.498-3.541-2.342-5.662-2.342s-4.16 0.845-5.662 2.342l-178.738 178.743c-10.51 10.487-24.749 16.375-39.594 16.375s-29.085-5.888-39.594-16.375l-160.412-160.405v390.063c0.002 2.121 0.846 4.155 2.345 5.655s3.534 2.343 5.655 2.345zM864 216h-704c-2.121 0.004-4.154 0.849-5.653 2.347s-2.344 3.533-2.347 5.653v118.059l194.344 194.342c1.501 1.498 3.536 2.342 5.658 2.342s4.157-0.845 5.658-2.342l178.749-178.743c10.509-10.487 24.747-16.375 39.59-16.375 14.848 0 29.086 5.888 39.595 16.375l82.748 82.743c1.502 1.498 3.537 2.338 5.658 2.338 2.125 0 4.16-0.841 5.662-2.338l162.338-162.338v-54.063c-0.004-2.121-0.849-4.156-2.347-5.653s-3.533-2.342-5.653-2.347zM595.716 595.716c-4.651 4.652-8.081 10.379-9.993 16.673-1.907 6.295-2.236 12.963-0.951 19.415s4.139 12.486 8.311 17.571c4.177 5.084 9.54 9.061 15.616 11.578s12.681 3.496 19.226 2.851c6.549-0.645 12.834-2.895 18.304-6.549s9.95-8.602 13.052-14.403c3.102-5.801 4.723-12.278 4.723-18.855v-0.008c0-7.911-2.351-15.644-6.746-22.221s-10.645-11.704-17.954-14.729-15.351-3.814-23.108-2.27c-7.761 1.545-14.886 5.355-20.48 10.948z" />
<glyph unicode="&#xe92a;" glyph-name="info" d="M511.996 853.461c-197.939 0-358.4-160.461-358.4-358.4s160.461-358.4 358.4-358.4c197.939 0 358.4 160.461 358.4 358.4s-160.461 358.4-358.4 358.4zM102.396 495.061c0 226.216 183.384 409.6 409.6 409.6 226.214 0 409.6-183.384 409.6-409.6 0-226.214-183.386-409.6-409.6-409.6-226.216 0-409.6 183.386-409.6 409.6zM486.396 665.728c0 14.138 11.46 25.6 25.6 25.6h0.427c14.14 0 25.6-11.462 25.6-25.6v-0.427c0-14.138-11.46-25.6-25.6-25.6h-0.427c-14.14 0-25.6 11.462-25.6 25.6v0.427zM511.996 520.661c14.14 0 25.6-11.46 25.6-25.6v-170.667c0-14.14-11.46-25.6-25.6-25.6s-25.6 11.46-25.6 25.6v170.667c0 14.14 11.46 25.6 25.6 25.6z" />
<glyph unicode="&#xe92b;" glyph-name="leaderboard" d="M631.458 892.486c0 18.851-15.275 34.125-34.125 34.125h-170.667c-18.851 0-34.125-15.274-34.125-34.125v-798.172h238.916v798.172zM682.667 43.106h-341.333v849.38c0 47.129 38.205 85.334 85.333 85.334h170.667c47.13 0 85.333-38.205 85.333-85.334v-849.38zM342.042 633.487c0 18.851-15.274 34.125-34.125 34.125h-170.667c-18.851 0-34.125-15.274-34.125-34.125v-539.173h238.917v539.173zM393.25 43.106h-341.333v590.381c0 47.129 38.205 85.334 85.333 85.334h170.667c47.128 0 85.333-38.205 85.333-85.334v-590.381zM921.562 464.559c0 18.854-15.275 34.125-34.125 34.125h-170.667c-18.85 0-34.125-15.27-34.125-34.125v-370.244h238.916v370.244zM972.77 43.106h-341.333v421.453c0 47.13 38.204 85.333 85.333 85.333h170.667c47.13 0 85.333-38.204 85.333-85.333v-421.453zM510.528 739.766v76.288l-19.115-19.285-16.725 17.579 39.765 39.253h25.429v-113.835h-29.355zM753.502 340.087l14.848 19.285c8.192-8.021 21.163-12.288 31.061-12.288 12.629 0 19.115 5.12 19.115 11.776s-4.779 10.411-20.309 10.411c-4.949 0-13.653-0.171-15.36-0.341v25.259c2.219-0.171 11.093-0.171 15.36-0.171 11.776 0 18.432 3.413 18.432 9.728 0 7.168-8.192 10.923-19.115 10.923-10.411 0-20.651-4.267-28.672-11.264l-13.824 17.92c9.557 10.752 24.576 18.432 45.568 18.432 29.013 0 45.227-12.459 45.227-31.232 0-13.312-11.435-23.381-24.917-25.6 12.117-1.195 26.795-10.581 26.795-26.965 0-19.968-18.773-33.792-47.104-33.792-21.845 0-38.229 7.68-47.104 17.92zM178.255 492.122v22.869c49.323 35.669 58.539 43.52 58.539 54.784 0 7.851-7.339 11.947-16.213 11.947-12.117 0-21.675-4.779-29.867-12.459l-16.213 19.456c12.117 13.313 30.208 18.945 46.080 18.945 26.795 0 46.080-15.020 46.080-37.889 0-17.408-12.459-32.256-43.008-52.053h43.861v-25.6h-89.259z" />
<glyph unicode="&#xe92c;" glyph-name="load" d="M544 896v-128c0-8.487-3.371-16.626-9.374-22.627-5.999-6.001-14.14-9.373-22.626-9.373s-16.627 3.372-22.626 9.373c-6.003 6.001-9.374 14.141-9.374 22.627v128c0 8.487 3.371 16.626 9.374 22.627 5.999 6.001 14.14 9.373 22.626 9.373s16.627-3.372 22.626-9.373c6.003-6.001 9.374-14.141 9.374-22.627zM896 544h-128c-8.486 0-16.627-3.371-22.626-9.374-6.003-5.999-9.374-14.14-9.374-22.626s3.371-16.627 9.374-22.626c5.999-6.003 14.14-9.374 22.626-9.374h128c8.486 0 16.627 3.371 22.626 9.374 6.003 5.999 9.374 14.14 9.374 22.626s-3.371 16.627-9.374 22.626c-5.999 6.003-14.14 9.374-22.626 9.374zM715.639 353.6c-6.050 5.747-14.106 8.905-22.451 8.798-8.341-0.107-16.316-3.469-22.217-9.37s-9.263-13.875-9.37-22.217c-0.107-8.346 3.051-16.401 8.798-22.451l90.479-90.522c6.007-6.003 14.148-9.378 22.643-9.378 8.491 0 16.631 3.375 22.639 9.378 6.003 6.007 9.378 14.148 9.378 22.639 0 8.495-3.375 16.636-9.378 22.643l-90.522 90.479zM512 288c-8.486 0-16.627-3.371-22.626-9.374-6.003-5.999-9.374-14.14-9.374-22.626v-128c0-8.486 3.371-16.627 9.374-22.626 5.999-6.003 14.14-9.374 22.626-9.374s16.627 3.371 22.626 9.374c6.003 5.999 9.374 14.14 9.374 22.626v128c0 8.486-3.371 16.627-9.374 22.626-5.999 6.003-14.14 9.374-22.626 9.374zM308.36 353.6l-90.52-90.479c-6.004-6.007-9.378-14.148-9.378-22.643 0-8.491 3.373-16.631 9.378-22.639 6.005-6.003 14.149-9.378 22.64-9.378s16.635 3.375 22.64 9.378l90.48 90.522c5.748 6.050 8.905 14.106 8.798 22.451-0.107 8.341-3.469 16.316-9.37 22.217s-13.873 9.263-22.218 9.37c-8.344 0.107-16.401-3.051-22.45-8.798zM288 512c0 8.486-3.372 16.627-9.373 22.626-6.001 6.003-14.141 9.374-22.627 9.374h-128c-8.487 0-16.626-3.371-22.627-9.374-6.001-5.999-9.373-14.14-9.373-22.626s3.372-16.627 9.373-22.626c6.001-6.003 14.141-9.374 22.627-9.374h128c8.487 0 16.626 3.371 22.627 9.374 6.001 5.999 9.373 14.14 9.373 22.626zM263.12 806.16c-6.004 6.004-14.148 9.378-22.64 9.378s-16.635-3.373-22.64-9.378c-6.004-6.005-9.378-14.149-9.378-22.64s3.373-16.635 9.378-22.64l90.52-90.48c6.050-5.748 14.106-8.905 22.45-8.798s16.317 3.469 22.218 9.37c5.901 5.901 9.263 13.873 9.37 22.218s-3.050 16.401-8.798 22.45l-90.48 90.52z" />
<glyph unicode="&#xe92d;" glyph-name="location" d="M511.979 960.016c-93.321-0.111-182.79-37.233-248.778-103.221s-103.11-155.457-103.221-248.779c0-301.187 320-528.69 333.623-538.222 5.389-3.763 11.806-5.781 18.377-5.781 6.575 0 12.988 2.018 18.377 5.781 13.623 9.532 333.623 237.035 333.623 538.222-0.111 93.322-37.231 182.79-103.219 248.779s-155.46 103.11-248.781 103.221zM512.004 736.003c25.314 0 50.061-7.507 71.113-21.572 21.047-14.065 37.457-34.056 47.142-57.444 9.69-23.389 12.224-49.126 7.283-73.956-4.937-24.828-17.126-47.637-35.029-65.536-17.903-17.903-40.708-30.093-65.54-35.034-24.828-4.937-50.564-2.402-73.954 7.283-23.39 9.69-43.379 26.095-57.443 47.147-14.065 21.047-21.572 45.794-21.572 71.112 0 33.948 13.486 66.505 37.49 90.51 24.006 24.004 56.561 37.49 90.511 37.49z" />
<glyph unicode="&#xe92e;" glyph-name="lock" d="M870.417 452.395c0 32.99-26.761 59.75-59.75 59.75h-597.333c-32.99 0-59.75-26.761-59.75-59.75v-298.667c0-32.99 26.76-59.75 59.75-59.75h597.333c32.99 0 59.75 26.761 59.75 59.75v298.667zM921.583 153.728c0-61.265-49.651-110.916-110.916-110.916h-597.333c-61.267 0-110.917 49.651-110.917 110.916v298.667c0 61.265 49.65 110.916 110.917 110.916h597.333c61.265 0 110.916-49.651 110.916-110.916v-298.667zM699.75 537.728v170.667c0 49.79-19.793 97.543-55.002 132.75-35.204 35.207-82.957 55-132.749 55s-97.543-19.793-132.75-55c-35.207-35.207-55-82.96-55-132.75v-170.667c0-14.14-11.445-25.583-25.583-25.583s-25.583 11.443-25.583 25.583v170.667c0 63.369 25.15 124.149 69.958 168.958s105.59 69.958 168.958 69.958c63.369 0 124.151-25.15 168.96-69.958s69.956-105.589 69.956-168.958v-170.667c0-14.14-11.443-25.583-25.583-25.583s-25.583 11.443-25.583 25.583z" />
<glyph unicode="&#xe92f;" glyph-name="log-out" d="M102.417 196.395v597.333c0 29.421 11.654 57.654 32.458 78.458s49.037 32.459 78.458 32.459h170.667c14.138 0 25.583-11.445 25.583-25.583s-11.445-25.583-25.583-25.583h-170.667c-15.842 0-31.048-6.298-42.25-17.5s-17.5-26.408-17.5-42.25v-597.333c0-15.842 6.298-31.049 17.5-42.249 11.202-11.204 26.408-17.502 42.25-17.502h170.667l5.167-0.499c11.663-2.389 20.417-12.715 20.417-25.084 0-14.14-11.445-25.583-25.583-25.583h-170.667c-29.421 0-57.654 11.652-78.458 32.457s-32.458 49.037-32.458 78.46zM664.58 726.479c9.997 9.997 26.172 9.997 36.169 0l213.333-213.335c9.997-9.997 9.997-26.167 0-36.164l-213.333-213.333c-9.997-9.997-26.172-9.997-36.169 0s-9.997 26.167 0 36.164l195.251 195.251-195.251 195.25c-9.997 9.998-9.997 26.17 0 36.167zM896 520.644c14.14 0 25.583-11.443 25.583-25.583s-11.443-25.583-25.583-25.583h-512c-14.138 0-25.583 11.443-25.583 25.583s11.445 25.583 25.583 25.583h512z" />
<glyph unicode="&#xe930;" glyph-name="map" d="M890.436 889.764c7.923 4.523 17.651 4.495 25.545-0.084 7.881-4.582 12.749-13.005 12.749-22.125v-568.876c0-9.186-4.941-17.69-12.915-22.251l-248.879-142.208c-7.428-4.245-16.508-4.493-24.166-0.666l-272.207 136.124-236.958-135.458c-7.92-4.523-17.651-4.489-25.542 0.085-7.889 4.578-12.745 13.005-12.75 22.123v568.918c0.005 9.178 4.907 17.652 12.875 22.208l251.75 143.625c6.815 2.842 14.593 2.637 21.292-0.708l272.168-136.083 237.039 135.375zM146.479 710.472v-509.875l213.458 121.707c6.818 2.842 14.592 2.603 21.292-0.747l272.168-136.043 224.124 128v509.958l-210.586-120.375c-7.428-4.247-16.508-4.495-24.166-0.667l-272.248 136.125-224.041-128.083zM344.187 298.679v568.876c0 14.138 11.445 25.583 25.583 25.583s25.583-11.445 25.583-25.583v-568.876c0-14.135-11.445-25.626-25.583-25.626s-25.583 11.49-25.583 25.626zM628.646 156.459v568.875c0 14.138 11.443 25.583 25.583 25.583s25.583-11.445 25.583-25.583v-568.875c0-14.14-11.443-25.626-25.583-25.626s-25.583 11.486-25.583 25.626z" />
<glyph unicode="&#xe931;" glyph-name="marathon" d="M477.862 678.959c18.172-0.68 47.74-3.595 61.542-16.792 20.143-19.256 24.862-46.288 12.791-72.334-24.585-53.018-72.311-99.345-93.875-141.623-8.614-16.832-3.686-26.705 6.959-37.124 11.456-11.23 22.912-22.562 34.125-33.792 35.891-0.866 77.406-2.325 82.748-1.711 26.615 3.089 62.528 63.518 68.877 73.212 1.907 2.957 3.823 5.914 5.79 8.998l56.375-55.791c-5.355-5.982-10.705-11.913-16-17.835l-1.498-1.668c-18.244-20.314-35.55-39.599-54.084-58.291-1.975-1.971-6.434-3.55-11.541-4.164-3.196-0.367-6.464-0.367-9.169 0.124-26.24 4.506-52.757 9.353-78.874 14.165 11.883-12.092 23.369-23.808 34.206-34.914 6.276-6.473 9.967-12.105 10.961-16.794 8.93-43.465 27.529-138.325 32.043-161.331l0.666-3.418-21.5-4.71c-7.518 18.948-17.655 43.981-25.293 61.751-7.701 17.958-15.671 36.548-23.002 55.002-7.39 18.56-18.722 32.201-35.708 42.748-49.161 30.677-97.379 62.315-142.165 91.874-14.705 9.685-23.474 21.282-26 34.419-2.46 12.774 0.989 26.688 10.167 41.374l2.708 4.002c5.352-6.596 10.991-9.203 13.583-9.212 6.022 0.009 9.292 3.712 13.041 7.962l3.625 4.164-8.375 12.958c-13.549 20.425-27.245 40.742-40.917 61.043-12.686 18.816-25.354 37.662-37.917 56.542-6.895 10.423-9.5 17.54-8.083 22.416 1.885 5.143 157.488 79.774 183.792 78.75zM378.57 321.835c-5.357-5.986-10.705-11.913-16-17.835-18.789-20.919-36.549-40.721-55.584-59.917-1.969-1.971-6.395-3.588-11.5-4.207-3.204-0.371-6.498-0.371-9.208 0.124-37.456 6.417-75.472 13.525-112.25 20.373-25.196 4.693-50.345 9.37-75.542 13.875-13.912 2.534-14.040 9.084-12.5 23.458 12.997-0.124 25.875-0.060 38.625 0 33.331 0.188 115.235-3.196 122.875-2.33l0.042 0.038c26.611 3.085 62.52 63.501 68.875 73.207 1.907 2.961 3.823 5.922 5.792 9.003l56.375-55.791zM812.446 765.375c18.163-0.679 47.731-3.602 61.542-16.792 20.139-19.253 24.896-46.291 12.83-72.333-24.58-53.020-72.35-99.345-93.914-141.624-8.61-16.836-3.648-26.701 6.997-37.124 39.245-38.327 77.879-77.743 110.959-111.629 6.272-6.468 9.971-12.105 10.961-16.789 4.617-22.588 10.846-53.577 16.205-80.666l-0.081-0.043-30.293-26.999c-7.637 17.954-15.586 36.489-22.916 54.874-7.394 18.573-18.748 32.179-35.75 42.79-49.156 30.673-97.34 62.272-142.123 91.836-14.72 9.69-23.475 21.312-26.001 34.458-2.458 12.77 0.994 26.654 10.167 41.335l2.709 4.041c5.346-6.588 10.944-9.199 13.538-9.207 6.037 0 9.327 3.699 13.086 7.957l3.622 4.126-8.375 12.958c-13.547 20.42-27.243 40.742-40.913 61.040l-37.961 56.625c-6.878 10.403-9.485 17.503-8.081 22.375 1.527 4.985 157.431 79.799 183.791 78.792zM415.945 600.666l-57.208-12.208c-3.991-0.87-7.386-3.409-9.292-7.040-1.842-3.639-2.033-7.91-0.5-11.669l32.375-77.875 45.208 95.415 0.042-0.081c1.415 2.961 1.18 6.43-0.542 9.207-1.788 2.771-4.823 4.459-8.083 4.459-0.664-0.002-1.336-0.088-2-0.209zM750.528 686.959l-57.165-12.209c-4.002-0.866-7.386-3.404-9.293-7.042-1.847-3.637-2.035-7.904-0.499-11.666l32.333-77.874 45.21 95.416 0.081-0.083c1.412 2.958 1.178 6.433-0.542 9.208-1.788 2.77-4.821 4.458-8.081 4.458-0.674-0.001-1.37-0.086-2.044-0.208zM568.363 805.708c28.036 0 50.79-22.786 50.79-50.875s-22.754-50.875-50.79-50.875c-28.028 0.011-50.752 22.792-50.752 50.875s22.724 50.864 50.752 50.875zM887.902 896c28.032-0.003 50.752-22.793 50.752-50.875-0.009-28.078-22.724-50.831-50.752-50.833-28.028 0-50.786 22.754-50.79 50.833 0 28.084 22.758 50.875 50.79 50.875z" />
<glyph unicode="&#xe932;" glyph-name="menu" d="M888 512c0-6.366-2.53-12.471-7.031-16.969-4.497-4.501-10.603-7.031-16.969-7.031h-704c-6.365 0-12.47 2.53-16.971 7.031-4.501 4.497-7.029 10.603-7.029 16.969s2.528 12.471 7.029 16.969c4.501 4.501 10.606 7.031 16.971 7.031h704c6.366 0 12.471-2.53 16.969-7.031 4.501-4.497 7.031-10.603 7.031-16.969zM160 744h704c6.366 0 12.471 2.528 16.969 7.029 4.501 4.501 7.031 10.606 7.031 16.971s-2.53 12.47-7.031 16.971c-4.497 4.501-10.603 7.029-16.969 7.029h-704c-6.365 0-12.47-2.528-16.971-7.029s-7.029-10.606-7.029-16.971c0-6.365 2.528-12.47 7.029-16.971s10.606-7.029 16.971-7.029zM864 280h-704c-6.365 0-12.47-2.53-16.971-7.031-4.501-4.497-7.029-10.603-7.029-16.969s2.528-12.471 7.029-16.969c4.501-4.501 10.606-7.031 16.971-7.031h704c6.366 0 12.471 2.53 16.969 7.031 4.501 4.497 7.031 10.603 7.031 16.969s-2.53 12.471-7.031 16.969c-4.497 4.501-10.603 7.031-16.969 7.031z" />
<glyph unicode="&#xe933;" glyph-name="minus" d="M810.667 537.583c14.14 0 25.583-11.443 25.583-25.583s-11.443-25.583-25.583-25.583h-597.333c-14.138 0-25.583 11.443-25.583 25.583s11.445 25.583 25.583 25.583h597.333z" />
<glyph unicode="&#xe934;" glyph-name="minus-circle" d="M682.667 537.583c14.14 0 25.583-11.443 25.583-25.583s-11.443-25.583-25.583-25.583h-341.333c-14.138 0-25.583 11.443-25.583 25.583s11.445 25.583 25.583 25.583h341.333zM844.791 512c0 183.8-148.992 332.791-332.791 332.791s-332.791-148.991-332.791-332.791c0-183.799 148.991-332.791 332.791-332.791v-51.209c-212.077 0-384 171.921-384 384 0 212.077 171.923 384 384 384 212.079 0 384-171.923 384-384 0-212.079-171.921-384-384-384v51.209c183.799 0 332.791 148.992 332.791 332.791z" />
<glyph unicode="&#xe935;" glyph-name="navigation" d="M919.898 941.183c9.775 4.631 21.389 2.608 29.039-5.041s9.673-19.264 5.043-29.042l-384-810.665c-4.629-9.771-14.908-15.569-25.668-14.502-10.748 1.075-19.669 8.768-22.289 19.251l-81.626 326.455-326.417 81.587c-10.483 2.62-18.177 11.537-19.25 22.289-1.065 10.761 4.73 21.039 14.5 25.668l810.668 383.999zM195.771 541.559l275.29-69.086c7.552-3.029 13.286-9.515 15.292-17.54l67.959-271.919 322.709 681.252-681.251-322.707z" />
<glyph unicode="&#xe936;" glyph-name="notification-normal" d="M876.339 316.22c-24.239 41.719-53.12 120.649-53.12 259.78v28.384c0 172.76-138.547 314.34-308.847 315.608l-2.377 0.008c-82.641-0.11-161.851-33.043-220.209-91.554s-91.083-137.807-90.977-220.446v-32c0-139.127-28.9-218.052-53.152-259.767-4.963-8.503-7.598-18.163-7.637-28.011-0.039-9.843 2.517-19.524 7.412-28.066s11.956-15.642 20.47-20.587c8.514-4.941 18.181-7.552 28.026-7.569h164.068v-8c0-40.311 16.014-78.976 44.52-107.482s67.166-44.518 107.482-44.518c40.311 0 78.972 16.013 107.477 44.518s44.523 67.17 44.523 107.482v8h164.066c9.843 0.013 19.511 2.624 28.023 7.565 8.516 4.945 15.578 12.045 20.471 20.582 4.894 8.542 7.454 18.223 7.411 28.066-0.038 9.843-2.671 19.503-7.633 28.006zM616 224c0-27.584-10.961-54.037-30.464-73.54s-45.956-30.46-73.536-30.46c-27.584 0-54.037 10.957-73.54 30.46-19.505 19.503-30.461 45.956-30.461 73.54v8h208.002v-8zM834.876 283.942c-0.67-1.216-1.655-2.223-2.854-2.918-1.203-0.695-2.569-1.050-3.955-1.024h-632.136c-1.387-0.026-2.755 0.329-3.955 1.024s-2.188 1.702-2.857 2.918c-0.74 1.237-1.127 2.65-1.12 4.092 0.007 1.438 0.408 2.85 1.16 4.079 27.212 46.81 59.652 134.067 59.652 283.887v32c-0.106 69.911 27.564 137 76.922 186.509s116.363 77.384 186.272 77.491l2.010-0.008c144.030-1.072 261.201-121.12 261.201-267.608v-28.384c0-149.82 32.422-237.077 59.622-283.891 0.751-1.229 1.152-2.637 1.156-4.075 0.009-1.438-0.38-2.85-1.118-4.087v-0.004z" />
<glyph unicode="&#xe937;" glyph-name="phone-call-light" d="M614.481 870.195c1.647 6.147 5.666 11.389 11.174 14.575 5.513 3.186 12.058 4.055 18.21 2.417 58.321-15.683 111.497-46.417 154.202-89.121 42.701-42.705 73.434-95.881 89.118-154.203 0.832-3.052 1.054-6.237 0.653-9.375s-1.417-6.165-2.995-8.908c-1.574-2.743-3.678-5.147-6.182-7.075-2.509-1.928-5.376-3.34-8.431-4.157s-6.242-1.021-9.378-0.602c-3.136 0.419-6.157 1.455-8.892 3.046s-5.124 3.707-7.040 6.227c-1.911 2.519-3.307 5.392-4.109 8.452-13.491 50.176-39.932 95.926-76.672 132.666s-82.492 63.181-132.668 76.674c-3.042 0.813-5.901 2.219-8.401 4.136s-4.604 4.308-6.178 7.037c-1.579 2.729-2.603 5.742-3.017 8.866s-0.209 6.301 0.606 9.346zM598.336 717.143c28.476-7.656 54.443-22.662 75.294-43.514s35.857-46.817 43.516-75.294c1.643-6.151 5.662-11.395 11.17-14.582 5.513-3.187 12.062-4.053 18.21-2.411 6.153 1.643 11.396 5.662 14.583 11.174 3.187 5.51 4.053 12.061 2.411 18.21-9.847 36.623-29.146 70.015-55.962 96.831s-60.207 46.114-96.832 55.962c-3.042 0.814-6.221 1.019-9.344 0.606s-6.135-1.439-8.866-3.017c-5.508-3.186-9.527-8.432-11.174-14.581-1.643-6.15-0.772-12.701 2.411-18.211 3.187-5.51 8.435-9.53 14.583-11.173zM918.289 324.681c-6.703-52.113-32.149-100.002-71.586-134.724-39.433-34.726-90.159-53.905-142.703-53.956-313.196 0-568 254.801-568 567.999 0.053 52.542 19.232 103.268 53.955 142.703s82.612 64.881 134.726 71.585c12.031 1.448 24.207-1.037 34.708-7.084s18.762-15.331 23.548-26.464l80.364-187.512c3.648-8.486 5.137-17.745 4.331-26.947s-3.878-18.061-8.947-25.785l-66.544-101.676c-0.752-1.092-1.209-2.364-1.326-3.686s0.11-2.654 0.658-3.861c30.878-62.989 81.949-113.83 145.079-144.422 1.216-0.546 2.556-0.764 3.878-0.636 1.327 0.128 2.598 0.597 3.686 1.361l100.139 66.778c7.748 5.184 16.666 8.346 25.946 9.199 9.284 0.853 18.628-0.631 27.187-4.318l187.349-80.299c11.132-4.783 20.42-13.043 26.466-23.543 6.050-10.5 8.533-22.677 7.087-34.709zM870.665 330.697c0.179 1.698-0.196 3.405-1.071 4.868-0.87 1.463-2.193 2.603-3.772 3.255l-187.341 80.29c-1.225 0.525-2.56 0.734-3.887 0.614-1.323-0.124-2.598-0.572-3.708-1.31l-100.139-66.782c-8.043-5.38-17.348-8.58-26.999-9.284-9.655-0.704-19.324 1.114-28.066 5.269-72.815 35.29-131.725 93.931-167.342 166.588-4.176 8.687-6.035 18.308-5.397 27.925 0.638 9.621 3.751 18.91 9.037 26.97l66.54 101.682c0.725 1.104 1.165 2.371 1.28 3.687s-0.098 2.64-0.62 3.853l-80.36 187.504c-0.596 1.428-1.596 2.652-2.877 3.522s-2.787 1.347-4.335 1.374c-0.303-0.001-0.607-0.021-0.908-0.060-40.525-5.219-77.765-25.012-104.762-55.683s-41.905-70.121-41.938-110.981c0.156-137.863 54.991-270.040 152.476-367.525 97.487-97.485 229.659-152.32 367.524-152.474 40.862 0.034 80.311 14.942 110.98 41.937 30.673 26.995 50.466 64.235 55.684 104.759z" />
<glyph unicode="&#xe938;" glyph-name="play" d="M902.417 512.009c-0.004 0.977-0.273 1.946-0.751 2.795-0.478 0.841-1.173 1.536-2.001 2.039l-0.081 0.085-577.792 353.082c-0.539 0.158-1.1 0.28-1.667 0.292-1.117 0.023-2.228-0.255-3.209-0.791-0.986-0.543-1.835-1.37-2.417-2.333-0.573-0.957-0.895-2.051-0.916-3.167v-704.002c0.021-1.122 0.336-2.244 0.916-3.204 0.582-0.964 1.431-1.749 2.417-2.295 0.983-0.538 2.087-0.811 3.209-0.789 1.125 0.021 2.246 0.333 3.208 0.917l576.332 352.499c0.836 0.508 1.523 1.233 2.001 2.082s0.751 1.818 0.751 2.79zM953.583 512.009c0-9.783-2.487-19.43-7.292-27.955-4.787-8.491-11.716-15.565-20.041-20.625l-576.375-352.542c-8.657-5.257-18.543-8.162-28.667-8.375s-20.129 2.283-29 7.168c-8.867 4.881-16.311 11.998-21.542 20.663-5.233 8.67-8.062 18.586-8.25 28.71l-0.042 0.457h0.042v705.46c0.19 10.115 3.025 20.004 8.25 28.666 5.233 8.67 12.671 15.824 21.542 20.709s18.876 7.338 29 7.125c7.588-0.16 15.054-1.801 21.958-4.833l6.792-3.542 576.207-352.416c8.371-5.069 15.322-12.228 20.126-20.753 4.8-8.516 7.292-18.138 7.292-27.917z" />
<glyph unicode="&#xe939;" glyph-name="pop" d="M749.914 786.084c9.997 9.998 26.172 9.998 36.169 0s9.997-26.169 0-36.166l-512.001-512c-9.997-9.997-26.169-9.997-36.166 0s-9.998 26.167 0 36.164l511.999 512.002zM742.417 352v390.417h-390.417c-14.138 0-25.583 11.445-25.583 25.583s11.445 25.583 25.583 25.583h416c14.14 0 25.583-11.445 25.583-25.583v-416c0-14.14-11.443-25.583-25.583-25.583s-25.583 11.443-25.583 25.583z" />
<glyph unicode="&#xe93a;" glyph-name="qr-code" d="M401.084 281.728c0 20.228-0.012 34.125-0.75 44.958-0.722 10.603-2.090 16.405-3.833 20.625-6.064 14.609-17.639 26.231-32.25 32.29v-0.038c-4.221 1.741-10.023 3.11-20.625 3.831-10.832 0.738-24.727 0.751-44.958 0.751s-34.126-0.013-44.958-0.751c-10.602-0.721-16.404-2.091-20.625-3.831-14.597-6.063-26.188-17.655-32.25-32.252-1.743-4.22-3.111-10.022-3.833-20.625-0.738-10.833-0.75-24.73-0.75-44.958 0-20.233 0.012-34.125 0.75-44.958 0.722-10.603 2.090-16.405 3.833-20.625 2.999-7.232 7.382-13.798 12.917-19.332 5.525-5.53 12.076-9.92 19.292-12.919h0.041c4.221-1.741 10.023-3.11 20.625-3.831 10.832-0.738 24.727-0.751 44.958-0.751s34.126 0.013 44.958 0.751c7.962 0.542 13.216 1.438 17.125 2.581l3.5 1.25c7.226 3.004 13.801 7.381 19.334 12.919 5.542 5.547 9.96 12.126 12.958 19.375v0.038c1.731 4.186 3.070 9.958 3.791 20.544 0.738 10.825 0.75 24.725 0.75 44.958zM571.75 281.728c0 14.14 11.443 25.583 25.583 25.583s25.583-11.443 25.583-25.583v-102.417h59.75l5.167-0.499c11.661-2.389 20.416-12.715 20.416-25.084 0-14.14-11.443-25.583-25.583-25.583h-85.333c-14.14 0-25.583 11.443-25.583 25.583v128zM853.333 179.311c14.14 0 25.583-11.443 25.583-25.583s-11.443-25.583-25.583-25.583h-42.667c-14.14 0-25.583 11.443-25.583 25.583s11.443 25.583 25.583 25.583h42.667zM853.333 435.311c14.14 0 25.583-11.443 25.583-25.583v-128c0-14.14-11.443-25.583-25.583-25.583h-128c-14.14 0-25.583 11.443-25.583 25.583s11.443 25.583 25.583 25.583h102.417v76.834h-17.084c-14.14 0-25.583 11.443-25.583 25.583s11.443 25.583 25.583 25.583h42.667zM682.667 435.311c14.14 0 25.583-11.443 25.583-25.583s-11.443-25.583-25.583-25.583h-85.333c-14.14 0-25.583 11.443-25.583 25.583s11.443 25.583 25.583 25.583h85.333zM401.084 708.394c0 20.231-0.012 34.127-0.75 44.959-0.722 10.602-2.090 16.404-3.833 20.625-6.064 14.609-17.639 26.231-32.25 32.292v-0.042c-4.221 1.743-10.023 3.111-20.625 3.834-10.832 0.737-24.727 0.75-44.958 0.75s-34.126-0.013-44.958-0.75c-10.602-0.722-16.404-2.090-20.625-3.834-14.597-6.061-26.188-17.652-32.25-32.25-1.743-4.221-3.111-10.023-3.833-20.625-0.738-10.832-0.75-24.728-0.75-44.959s0.012-34.126 0.75-44.958c0.722-10.602 2.090-16.404 3.833-20.625 2.999-7.229 7.382-13.799 12.917-19.334 5.525-5.525 12.076-9.917 19.292-12.916h0.041c4.221-1.744 10.023-3.112 20.625-3.834 10.832-0.737 24.727-0.75 44.958-0.75s34.126 0.013 44.958 0.75c7.962 0.542 13.216 1.438 17.125 2.583l3.5 1.25c7.226 3.004 13.801 7.38 19.334 12.916 5.542 5.547 9.96 12.13 12.958 19.375v0.042c1.731 4.185 3.070 9.956 3.791 20.541 0.738 10.827 0.75 24.726 0.75 44.958zM827.75 708.394c0 20.231-0.013 34.127-0.751 44.959-0.721 10.602-2.091 16.404-3.831 20.625-6.067 14.609-17.638 26.231-32.252 32.292v-0.042c-4.22 1.743-10.022 3.111-20.625 3.834-10.833 0.737-24.725 0.75-44.958 0.75-20.228 0-34.125-0.013-44.958-0.75-10.603-0.722-16.405-2.090-20.625-3.834-14.596-6.061-26.189-17.652-32.252-32.25-1.741-4.221-3.11-10.023-3.831-20.625-0.738-10.832-0.751-24.728-0.751-44.959s0.013-34.126 0.751-44.958c0.721-10.602 2.091-16.404 3.831-20.625 2.999-7.229 7.386-13.799 12.919-19.334 5.525-5.525 12.075-9.917 19.29-12.916h0.043c4.22-1.744 10.022-3.112 20.625-3.834 10.833-0.737 24.73-0.75 44.958-0.75 20.233 0 34.125 0.013 44.958 0.75 7.962 0.542 13.218 1.438 17.126 2.583l3.499 1.25c7.228 3.004 13.803 7.38 19.332 12.916 5.542 5.547 9.963 12.13 12.962 19.375v0.042c1.728 4.185 3.068 9.956 3.789 20.541 0.738 10.827 0.751 24.726 0.751 44.958zM452.25 281.728c0-19.524 0.051-35.452-0.832-48.418-0.674-9.894-1.958-19.127-4.544-27.959l-3.038-8.708c-5.572-13.461-13.747-25.69-24.044-35.998-10.295-10.304-22.503-18.505-35.958-24.085h-0.042c-11.475-4.736-23.468-6.682-36.667-7.582-12.975-0.883-28.925-0.832-48.458-0.832s-35.483-0.051-48.458 0.832c-9.9 0.674-19.125 1.92-27.958 4.501l-8.708 3.081c-13.456 5.577-25.702 13.743-36 24.043-7.722 7.723-14.244 16.529-19.375 26.125l-4.666 9.877c-4.74 11.473-6.684 23.467-7.584 36.663-0.884 12.979-0.833 28.928-0.833 48.461s-0.050 35.482 0.833 48.457c0.9 13.201 2.844 25.195 7.584 36.668v0.043c11.258 27.157 32.842 48.742 60 59.998h0.042c11.475 4.74 23.468 6.686 36.666 7.586 12.975 0.883 28.925 0.832 48.458 0.832s35.483 0.051 48.458-0.832c13.199-0.9 25.192-2.846 36.667-7.586h0.042c23.768-9.852 43.247-27.601 55.291-50.082l4.71-9.916v-0.043c4.736-11.473 6.682-23.467 7.582-36.668 0.883-12.975 0.832-28.924 0.832-48.457zM452.25 708.394c0-19.523 0.051-35.449-0.832-48.416-0.674-9.895-1.958-19.128-4.544-27.958l-3.038-8.709c-5.572-13.463-13.747-25.693-24.044-36-10.295-10.304-22.503-18.505-35.958-24.085h-0.042c-11.475-4.736-23.468-6.682-36.667-7.582-12.975-0.883-28.925-0.832-48.458-0.832s-35.483-0.051-48.458 0.832c-9.9 0.674-19.125 1.92-27.958 4.501l-8.708 3.081c-13.456 5.577-25.702 13.743-36 24.043-7.722 7.723-14.244 16.53-19.375 26.126l-4.666 9.875c-4.74 11.475-6.684 23.468-7.584 36.666-0.884 12.975-0.833 28.925-0.833 48.458s-0.050 35.483 0.833 48.459c0.9 13.198 2.844 25.192 7.584 36.666v0.042c11.258 27.158 32.842 48.742 60 60h0.042c11.475 4.739 23.468 6.683 36.666 7.583 12.975 0.884 28.925 0.833 48.458 0.833s35.483 0.050 48.458-0.833c13.199-0.9 25.192-2.844 36.667-7.583h0.042c23.768-9.851 43.247-27.604 55.291-50.083l4.71-9.917v-0.042c4.736-11.475 6.682-23.468 7.582-36.666 0.883-12.976 0.832-28.925 0.832-48.459zM878.916 708.394c0-19.523 0.051-35.449-0.832-48.416-0.674-9.895-1.958-19.128-4.544-27.958l-3.038-8.709c-5.572-13.463-13.747-25.693-24.043-36-10.295-10.304-22.502-18.505-35.959-24.085h-0.043c-11.473-4.736-23.467-6.682-36.663-7.582-12.979-0.883-28.928-0.832-48.461-0.832s-35.482-0.051-48.457 0.832c-9.899 0.674-19.127 1.92-27.959 4.501l-8.708 3.081c-13.457 5.577-25.702 13.743-36.002 24.043-7.718 7.723-14.242 16.53-19.375 26.126l-4.663 9.875c-4.74 11.475-6.686 23.468-7.586 36.666-0.883 12.975-0.832 28.925-0.832 48.458s-0.051 35.483 0.832 48.459c0.9 13.198 2.846 25.192 7.586 36.666v0.042c11.255 27.158 32.841 48.742 59.998 60h0.043c11.473 4.739 23.467 6.683 36.668 7.583 12.975 0.884 28.924 0.833 48.457 0.833s35.482 0.050 48.461-0.833c13.197-0.9 25.19-2.844 36.663-7.583h0.043c23.77-9.851 43.247-27.604 55.292-50.083l4.71-9.917v-0.042c4.736-11.475 6.682-23.468 7.582-36.666 0.883-12.976 0.832-28.925 0.832-48.459z" />
<glyph unicode="&#xe93b;" glyph-name="refresh" d="M512.009 765.644c40.939 0 69.572-1.373 89.498-3.583 18.59-2.062 33.331-5.134 43.166-11.084 5.282-3.196 13.385-9.852 15.458-21.458 2.078-11.628-3.315-20.227-6.374-24.041-3.183-3.968-6.741-6.54-8.623-7.792-1.092-0.726-2.095-1.295-2.833-1.708-0.371-0.206-0.687-0.399-0.96-0.541-0.137-0.073-0.26-0.151-0.375-0.209-0.051-0.026-0.119-0.018-0.166-0.041l-0.081-0.042-0.043-0.042c-12.676-6.245-28.036-1.044-34.291 11.625-0.503 1.024-0.853 2.115-1.207 3.167-2.615 0.404-5.713 0.89-9.335 1.292-17.263 1.914-43.789 3.291-83.831 3.291-52.954 0-104.724-15.707-148.751-45.125s-78.319-71.248-98.583-120.165c-20.264-48.926-25.581-102.775-15.25-154.709 10.333-51.93 35.811-99.644 73.25-137.084s85.155-62.916 137.085-73.25c51.934-10.33 105.783-5.013 154.705 15.249 48.922 20.267 90.752 54.558 120.166 98.586 29.419 44.028 45.129 95.795 45.129 148.749 0 14.14 11.443 25.583 25.583 25.583 14.135 0 25.583-11.443 25.583-25.583 0-63.078-18.705-124.762-53.751-177.207-35.042-52.442-84.855-93.325-143.125-117.461-58.27-24.132-122.389-30.426-184.247-18.125-61.869 12.309-118.69 42.688-163.293 87.292s-74.986 101.427-87.292 163.294c-12.303 61.858-6.009 125.978 18.125 184.247 24.137 58.271 65.020 108.082 117.458 143.127 52.448 35.045 114.127 53.75 177.21 53.75zM617.758 740.853c-0.051-0.027-0.124-0.018-0.166-0.042-0.115-0.059-0.209-0.119-0.294-0.166-0.162-0.092-0.354-0.209-0.542-0.334-0.038-0.025-0.098-0.141-0.247-0.25 0.422 0.247 0.806 0.567 1.25 0.792zM493.914 897.478c9.997 9.998 26.172 9.998 36.169 0l146.667-146.667c9.997-9.997 9.997-26.169 0-36.166l-146.667-146.667c-9.997-9.997-26.172-9.997-36.169 0s-9.997 26.167 0 36.166l128.585 128.583-128.585 128.584c-9.997 9.997-9.997 26.169 0 36.166z" />
<glyph unicode="&#xe93c;" glyph-name="run" d="M607.996 680c23.731 0 46.933 7.038 66.667 20.224s35.115 31.927 44.198 53.854c9.084 21.927 11.46 46.055 6.827 69.333-4.629 23.278-16.060 44.66-32.841 61.442s-38.165 28.211-61.44 32.841c-23.279 4.63-47.407 2.254-69.333-6.829s-40.67-24.463-53.854-44.197c-13.188-19.734-20.224-42.935-20.224-66.668 0-31.826 12.642-62.348 35.145-84.853 22.507-22.505 53.030-35.147 84.855-35.147zM607.996 872c14.238 0 28.16-4.223 40-12.134s21.069-19.156 26.517-32.312c5.449-13.156 6.878-27.633 4.096-41.6-2.778-13.967-9.634-26.796-19.703-36.865s-22.899-16.927-36.864-19.705c-13.969-2.778-28.446-1.352-41.6 4.097-13.158 5.45-24.401 14.678-32.311 26.518-7.915 11.84-12.134 25.761-12.134 40.001 0 19.095 7.586 37.409 21.086 50.912 13.504 13.503 31.817 21.088 50.914 21.088zM873.954 468.561c-2.359-1.079-28.681-12.523-75.52-12.523-55.441 0-139.601 16-246.921 84.002-17.195-51.341-40.606-100.386-69.717-146.039 37.717-11.123 88-30.882 132.757-65.041 75.281-57.161 113.442-135.561 113.442-232.96 0-6.366-2.53-12.471-7.031-16.969-4.501-4.501-10.603-7.031-16.969-7.031s-12.471 2.53-16.973 7.031c-4.501 4.497-7.027 10.603-7.027 16.969 0 176-148.919 236.719-227.639 256.439-3.2-4.134-6.481-8.252-9.843-12.361-76.998-93.239-173.359-141.798-280.438-141.798-12.181-0.038-24.357 0.533-36.48 1.719-3.152 0.316-6.211 1.246-9.002 2.743s-5.26 3.533-7.266 5.982c-2.006 2.453-3.509 5.274-4.424 8.307s-1.224 6.217-0.908 9.365c0.315 3.153 1.248 6.212 2.745 9.003s3.53 5.261 5.981 7.266c4.951 4.053 11.308 5.969 17.674 5.333 106.52-10.641 199.080 30.639 275.080 122.761 52.642 63.761 87.761 142.037 104.32 196.599-162.039 98.080-266.359 19.119-270.88 15.561-4.989-3.81-11.273-5.513-17.502-4.74-6.229 0.768-11.91 3.947-15.823 8.853s-5.748 11.154-5.112 17.399c0.636 6.244 3.694 11.991 8.517 16.008 1.48 1.2 37.56 29.72 99.040 40 55.44 9.24 143.682 5.2 249.44-66.682 188.561-128 295.522-81.877 296.559-81.399 2.871 1.314 5.969 2.052 9.122 2.167 3.149 0.115 6.293-0.393 9.25-1.493 2.957-1.097 5.67-2.769 7.979-4.915 2.313-2.146 4.177-4.727 5.491-7.599 1.314-2.867 2.048-5.965 2.163-9.118s-0.388-6.298-1.489-9.254c-1.101-2.957-2.769-5.666-4.919-7.979-2.146-2.308-4.727-4.173-7.595-5.487l-0.081-0.119z" />
<glyph unicode="&#xe93d;" glyph-name="search" d="M785.084 554.667c0 174.375-141.376 315.75-315.75 315.75s-315.75-141.375-315.75-315.75c0-174.374 141.375-315.75 315.75-315.75s315.75 141.376 315.75 315.75zM836.25 554.667c0-202.65-164.267-366.916-366.916-366.916-202.652 0-366.917 164.267-366.917 366.916 0 202.652 164.265 366.917 366.917 366.917 202.65 0 366.916-164.265 366.916-366.917zM914.103 146.099c9.993-9.997 9.997-26.21 0-36.207s-26.21-9.993-36.211 0l36.211 36.207zM692.309 331.682c9.997 10.001 26.172 10.001 36.169 0l185.626-185.583-18.125-18.082-18.086-18.125-185.583 185.626c-9.997 9.997-9.997 26.167 0 36.164z" />
<glyph unicode="&#xe93e;" glyph-name="setting" d="M603.75 495.061c0 50.662-41.088 91.75-91.75 91.75s-91.75-41.088-91.75-91.75c0-50.662 41.088-91.75 91.75-91.75s91.75 41.088 91.75 91.75zM654.916 495.061c0-78.942-63.974-142.916-142.916-142.916s-142.917 63.974-142.917 142.916c0 78.942 63.975 142.917 142.917 142.917s142.916-63.975 142.916-142.917zM564.604 847.075c-0.004 13.952-5.551 27.343-15.415 37.208-9.869 9.86-23.258 15.417-37.21 15.417-13.952-0.004-27.341-5.551-37.21-15.417-9.865-9.865-15.411-23.257-15.415-37.208v-6.75c-0.068-17.575-5.257-34.763-14.959-49.417-9.707-14.656-23.509-26.159-39.665-33.083-2.492-1.067-5.143-1.596-7.833-1.833-15.144-5.638-31.536-7.186-47.5-4.292-17.72 3.213-34.084 11.657-46.958 24.25l-2.542 2.542v0.042c-4.886 4.89-10.698 8.769-17.083 11.417-6.388 2.647-13.252 4-20.167 4-6.905-0.002-13.745-1.358-20.125-4-6.383-2.646-12.199-6.53-17.083-11.417l-0.042-0.042c-4.888-4.885-8.77-10.699-11.416-17.083-2.643-6.38-3.998-13.219-4-20.125 0-6.914 1.353-13.78 4-20.167 2.647-6.385 6.527-12.197 11.416-17.083h0.042l2.333-2.375 0.208-0.167c12.593-12.874 21.037-29.238 24.25-46.958 3.114-17.176 1.078-34.842-5.667-50.917l0.042-0.042c-6.243-16.973-17.458-31.689-32.167-42.21-14.711-10.522-32.253-16.367-50.333-16.789l-0.583-0.043v0.043h-3.542c-13.95-0.004-27.343-5.551-37.208-15.415s-15.412-23.262-15.417-37.21c0-13.948 5.558-27.341 15.417-37.21 9.865-9.865 23.257-15.411 37.208-15.415h6.75c17.577-0.073 34.762-5.295 49.417-15.002 14.651-9.702 26.158-23.471 33.083-39.625h-0.042c7.194-16.418 9.365-34.607 6.167-52.25-3.213-17.711-11.667-34.048-24.25-46.916l-0.208-0.209-2.333-2.372h-0.041c-4.887-4.885-8.771-10.701-11.417-17.084-2.642-6.383-3.998-13.222-4-20.126 0-6.916 1.353-13.781 4-20.169 2.647-6.383 6.527-12.194 11.417-17.084h0.041c4.887-4.89 10.695-8.768 17.083-11.413 6.383-2.65 13.216-4.041 20.125-4.045 6.915 0 13.779 1.395 20.167 4.045 6.386 2.645 12.198 6.524 17.083 11.413l2.375 2.334 0.167 0.209 5 4.544c11.994 10.091 26.457 16.896 41.958 19.708 17.713 3.209 35.987 1.054 52.458-6.208h-0.042c16.359-6.34 30.531-17.297 40.75-31.586 10.513-14.703 16.367-32.218 16.794-50.291l0.038-0.623h-0.038v-3.503c0-13.948 5.555-27.341 15.415-37.205 9.865-9.865 23.258-15.415 37.21-15.42 13.952 0 27.337 5.551 37.205 15.42s15.42 23.249 15.42 37.205v6.75c0.073 17.57 5.299 34.726 14.997 49.378 9.655 14.575 23.33 26.061 39.377 32.998 16.474 7.27 34.778 9.421 52.497 6.208 15.501-2.812 29.965-9.613 41.958-19.708l4.958-4.544 2.586-2.539 3.831-3.503c3.994-3.273 8.465-5.931 13.252-7.915 6.383-2.645 13.214-4.041 20.126-4.041s13.777 1.391 20.164 4.041c6.387 2.65 12.198 6.524 17.084 11.418l3.499 3.831c3.281 3.989 5.931 8.465 7.919 13.252 2.65 6.387 4.041 13.248 4.041 20.164 0 6.912-1.395 13.743-4.041 20.126-2.65 6.387-6.524 12.198-11.418 17.084v0.043l-2.543 2.539c-12.582 12.873-21.035 29.21-24.247 46.921-3.213 17.719-1.062 36.023 6.208 52.497 6.933 16.047 18.419 29.722 32.998 39.377 14.652 9.698 31.808 14.925 49.378 14.997h3.622c13.956 0 27.341 5.551 37.21 15.42s15.415 23.249 15.415 37.205c-0.004 13.952-5.551 27.345-15.415 37.21-9.869 9.86-23.258 15.415-37.21 15.415h-6.75c-17.566 0.073-34.726 5.265-49.374 14.959-14.656 9.707-26.159 23.509-33.084 39.667-1.062 2.481-1.634 5.113-1.877 7.792-5.645 15.152-7.142 31.567-4.25 47.542 3.213 17.72 11.657 34.084 24.252 46.959l2.543 2.542 3.499 3.833c3.277 3.991 5.931 8.463 7.915 13.25 2.65 6.388 4.045 13.251 4.045 20.166-0.004 6.909-1.399 13.743-4.045 20.125-2.645 6.388-6.524 12.196-11.413 17.083v0.042c-4.89 4.891-10.697 8.769-17.084 11.417s-13.252 4-20.169 4c-6.903-0.001-13.743-1.358-20.126-4-6.383-2.646-12.198-6.53-17.084-11.417l-2.581-2.583c-12.868-12.582-29.21-21.036-46.916-24.25-17.638-3.198-35.831-1.025-52.25 6.167-16.145 6.926-29.926 18.394-39.625 33.042-9.707 14.656-14.929 31.839-15.002 49.417v3.625zM615.812 843.659c0.030-7.593 2.266-15.044 6.46-21.375 4.186-6.322 10.155-11.259 17.122-14.25l0.252-0.125c7.113-3.138 15.019-4.091 22.665-2.708 7.654 1.388 14.733 5.060 20.292 10.5l2.125 2.125 7.586 6.875c7.876 6.467 16.674 11.75 26.125 15.667 12.599 5.223 26.108 7.915 39.748 7.916s27.153-2.696 39.753-7.916c12.582-5.217 24.030-12.867 33.664-22.5 9.655-9.642 17.361-21.104 22.583-33.708 5.222-12.599 7.872-26.112 7.876-39.75 0-13.644-2.65-27.188-7.876-39.791-3.921-9.454-9.233-18.246-15.706-26.125l-6.835-7.542-2.334-2.333c-5.338-5.53-8.917-12.518-10.291-20.084-1.387-7.65-0.469-15.553 2.667-22.667 0.93-2.109 1.455-4.355 1.792-6.625 3.029-5.565 7.313-10.356 12.625-13.875 6.327-4.191 13.743-6.468 21.333-6.5h6.541c27.529 0 53.948-10.912 73.417-30.377s30.413-45.884 30.417-73.417c0-27.533-10.944-53.943-30.417-73.417-19.469-19.469-45.879-30.417-73.417-30.417h-3.418c-7.586-0.030-15.006-2.27-21.333-6.455-6.327-4.19-11.298-10.15-14.289-17.126l-0.085-0.252c-3.136-7.108-4.092-15.014-2.709-22.665 1.374-7.561 4.962-14.554 10.295-20.083l2.291-2.334h0.038c9.655-9.643 17.318-21.103 22.545-33.707 5.222-12.599 7.915-26.112 7.915-39.753 0-13.636-2.697-27.153-7.915-39.748-3.921-9.459-9.233-18.283-15.71-26.167l-6.835-7.543c-9.634-9.643-21.069-17.318-33.664-22.541-12.604-5.222-26.15-7.872-39.791-7.872s-27.153 2.65-39.753 7.872c-12.604 5.227-24.064 12.89-33.707 22.541v0.043l-2.334 2.291v0.043c-5.525 5.321-12.531 8.879-20.083 10.249-7.65 1.387-15.556 0.474-22.669-2.667l-0.247-0.124c-6.972-2.991-12.937-7.966-17.126-14.289-4.186-6.327-6.426-13.747-6.46-21.333v-6.545c0-27.533-10.944-53.943-30.413-73.417-19.473-19.469-45.884-30.417-73.417-30.417-27.529 0.004-53.909 10.957-73.378 30.417-19.469 19.473-30.415 45.884-30.415 73.417v2.918l-0.584 5.79c-1.001 5.722-3.258 11.196-6.667 15.962-4.544 6.349-10.921 11.179-18.25 13.875-0.503 0.183-1.010 0.367-1.5 0.58-7.116 3.14-15.013 4.096-22.667 2.709-7.642-1.387-14.694-5.030-20.25-10.458l-2.167-2.167c-9.638-9.647-21.071-17.318-33.667-22.541-12.604-5.227-26.148-7.919-39.792-7.919-13.638 0.004-27.151 2.697-39.75 7.919-9.455 3.917-18.245 9.233-26.125 15.706l-7.542 6.835c-9.647 9.638-17.318 21.073-22.542 33.668-5.225 12.604-7.917 26.146-7.917 39.791 0.002 13.641 2.694 27.149 7.917 39.748 5.225 12.604 12.89 24.068 22.542 33.711l2.083 2.125c5.44 5.559 9.154 12.638 10.542 20.292 1.382 7.646 0.43 15.556-2.708 22.665l-0.083 0.252c-2.991 6.972-7.964 12.932-14.292 17.122-6.33 4.194-13.782 6.43-21.375 6.46h-6.542c-27.53 0.004-53.949 10.948-73.417 30.417-19.461 19.469-30.375 45.888-30.375 73.417 0.005 27.52 10.921 53.909 30.375 73.374 19.467 19.469 45.886 30.413 73.417 30.417h2.917c7.806 0.183 15.398 2.71 21.75 7.25 6.354 4.545 11.22 10.918 13.917 18.25l0.583 1.5c3.139 7.115 4.096 15.015 2.708 22.667-1.389 7.649-5.065 14.692-10.5 20.25v0.042l-2.125 2.125c-9.647 9.638-17.318 21.070-22.542 33.667-5.225 12.604-7.917 26.148-7.917 39.792 0.003 13.638 2.694 27.152 7.917 39.75 5.219 12.588 12.863 24.032 22.5 33.667 9.642 9.652 21.106 17.317 33.708 22.542 12.599 5.223 26.111 7.915 39.75 7.917 13.644 0 27.188-2.692 39.792-7.917 12.596-5.224 24.029-12.895 33.667-22.542l2.125-2.125c5.559-5.438 12.639-9.111 20.291-10.5 7.654-1.388 15.551-0.432 22.667 2.708 2.11 0.931 4.354 1.457 6.625 1.792 5.556 3.027 10.359 7.279 13.875 12.584 4.173 6.301 6.449 13.694 6.5 21.25v6.667c0.004 27.531 10.908 53.949 30.375 73.417 19.469 19.467 45.888 30.371 73.417 30.375 27.529 0 53.948-10.913 73.417-30.375 19.469-19.468 30.413-45.886 30.417-73.417v-3.417z" />
<glyph unicode="&#xe93f;" glyph-name="share" d="M792 202.667c0-6.366-2.53-12.471-7.031-16.973-4.497-4.501-10.603-7.027-16.969-7.027h-608c-14.847 0.017-29.081 5.922-39.579 16.418-10.498 10.5-16.404 24.734-16.421 39.582v479.998c0 6.365 2.528 12.47 7.029 16.971s10.606 7.029 16.971 7.029c6.365 0 12.47-2.528 16.971-7.029s7.029-10.605 7.029-16.971v-479.998c0.003-2.125 0.847-4.156 2.347-5.653 1.5-1.502 3.532-2.347 5.653-2.347h608c6.366 0 12.471-2.53 16.969-7.031 4.501-4.501 7.031-10.607 7.031-16.969zM915.994 637.393l0.141 0.24c0.806 1.237 1.498 2.547 2.061 3.912 0.043 0.1 0.068 0.2 0.111 0.296 0.538 1.351 0.951 2.749 1.237 4.176l0.034 0.232c0.563 2.917 0.563 5.915 0 8.832-0.013 0.080-0.021 0.16-0.038 0.232-0.282 1.425-0.695 2.822-1.233 4.172l-0.111 0.3c-0.563 1.365-1.254 2.674-2.061 3.912l-0.141 0.24c-0.892 1.341-1.916 2.59-3.055 3.728l-191.97 191.968c-4.527 4.372-10.59 6.791-16.883 6.736s-12.309-2.579-16.759-7.028c-4.45-4.45-6.976-10.469-7.031-16.762-0.051-6.293 2.364-12.355 6.737-16.881l151.027-151.032h-166.059c-90.483 0.061-178.415-29.974-249.951-85.378-71.537-55.398-122.615-133.022-145.193-220.642-0.818-3.063-1.021-6.259-0.598-9.399s1.465-6.17 3.065-8.905c1.6-2.739 3.726-5.133 6.256-7.040 2.53-1.911 5.414-3.302 8.484-4.092s6.267-0.964 9.405-0.512c3.138 0.452 6.156 1.523 8.878 3.145 2.722 1.626 5.095 3.776 6.982 6.323s3.251 5.444 4.013 8.521c19.926 77.308 64.998 145.788 128.12 194.667 63.121 48.878 140.706 75.372 220.54 75.313h166.059l-151.027-151.034c-2.291-2.21-4.122-4.86-5.376-7.787-1.259-2.931-1.92-6.080-1.95-9.267-0.026-3.187 0.58-6.345 1.788-9.297 1.207-2.948 2.987-5.628 5.239-7.881 2.257-2.253 4.937-4.036 7.885-5.244s6.11-1.813 9.297-1.783c3.187 0.026 6.336 0.687 9.263 1.946s5.577 3.085 7.791 5.38l191.97 191.967c1.139 1.137 2.163 2.386 3.055 3.728z" />
<glyph unicode="&#xe940;" glyph-name="sponsor" d="M915.319 461.598c-10.526 8.107-22.78 13.67-35.81 16.256s-26.483 2.125-39.305-1.348l-16.602-3.844c83.571 77.692 125.837 154.69 125.837 229.653 0 97.44-78.345 176.744-174.669 176.744-27.166 0.17-53.999-5.992-78.37-17.996-24.367-12.005-45.606-29.523-62.029-51.165-16.418 21.642-37.658 39.16-62.029 51.165-24.367 12.005-51.2 18.167-78.366 17.996-96.325 0-174.668-79.304-174.668-176.744 0-43.725 13.947-86.412 43.379-132.019-24.125-3.721-46.424-15.074-63.628-32.393l-89.179-89.178h-113.423c-14.266 0-27.948-5.666-38.036-15.757-10.088-10.086-15.755-23.77-15.755-38.033v-153.694c0-14.263 5.667-27.947 15.755-38.033 10.088-10.091 23.77-15.757 38.036-15.757h399.593c1.894 0 3.776 0.23 5.611 0.691l245.905 61.478c1.165 0.307 2.304 0.691 3.418 1.152l150.426 64.051c13.188 6.583 24.482 16.418 32.819 28.578 8.337 12.156 13.44 26.236 14.831 40.909 1.395 14.677-0.973 29.466-6.878 42.97-5.901 13.508-15.147 25.293-26.863 34.24v0.077zM493.978 832.951c25.353 0.338 50.231-6.896 71.45-20.777s37.815-33.778 47.659-57.144c1.741-4.228 4.693-7.845 8.491-10.39s8.265-3.904 12.834-3.904c4.574 0 9.041 1.359 12.838 3.904s6.75 6.161 8.486 10.39c9.847 23.366 26.441 43.263 47.663 57.144 21.218 13.881 46.093 21.115 71.45 20.777 69.619 0 128.482-59.824 128.482-130.636 0-77.767-62.165-165.218-179.814-252.629l-57.135-13.141c5.696 15.121 7.646 31.394 5.67 47.428-1.971 16.034-7.804 31.356-16.994 44.642s-21.47 24.145-35.78 31.646c-14.306 7.501-30.221 11.418-46.379 11.418h-154.959c-35.771 47.375-52.524 89.101-52.524 130.636 0 70.813 58.863 130.636 128.561 130.636zM88.774 241.242v153.694c0 2.035 0.81 3.989 2.251 5.431s3.395 2.253 5.434 2.253h99.898v-169.062h-99.898c-2.038 0-3.993 0.811-5.434 2.253s-2.251 3.396-2.251 5.431zM881.353 356.51l-146.773-62.511-241.37-60.442h-250.746v182.545l89.179 89.22c6.409 6.443 14.031 11.55 22.427 15.023 8.396 3.477 17.398 5.252 26.485 5.227h192.343c14.268 0 27.947-5.67 38.037-15.757 10.086-10.086 15.753-23.77 15.753-38.037s-5.666-27.947-15.753-38.037c-10.091-10.086-23.77-15.753-38.037-15.753h-107.584c-6.114 0-11.977-2.432-16.299-6.754-4.326-4.322-6.754-10.185-6.754-16.299s2.428-11.981 6.754-16.303c4.322-4.322 10.185-6.754 16.299-6.754h122.953c1.732 0 3.46 0.192 5.15 0.576l258.351 59.443c9.69 2.641 20.015 1.609 28.988-2.897 8.977-4.506 15.97-12.169 19.639-21.521 3.669-9.348 3.755-19.721 0.239-29.129s-10.381-17.186-19.281-21.841z" />
<glyph unicode="&#xe941;" glyph-name="switch" d="M579.772 926.144l3.166-0.166c7.326-0.916 13.969-4.979 18.125-11.209l36.373-54.542h118.17c14.135 0 25.574-11.45 25.583-25.583v-329.71c0-14.135-11.447-25.621-25.583-25.621h-483.584c-14.138 0-25.583 11.486-25.583 25.621v329.71c0.006 14.133 11.449 25.583 25.583 25.583h118.167l36.375 54.542 1.917 2.542c4.821 5.586 11.891 8.829 19.375 8.833h131.917zM425.187 820.436c-4.748-7.118-12.735-11.416-21.292-11.416h-106.292v-278.498h432.418v278.498h-106.291c-8.559 0-16.546 4.298-21.295 11.416l-36.373 54.542h-104.461l-36.415-54.542zM406.761 304.243c10.569 10.569 27.68 10.569 38.249 0l87.919-87.915c5.073-5.077 7.957-11.951 7.957-19.127s-2.884-14.050-7.957-19.123l-87.919-87.957c-10.564-10.556-27.683-10.556-38.249 0-10.569 10.569-10.569 27.721 0 38.289l68.794 68.791-68.794 68.791c-10.569 10.569-10.569 27.682 0 38.251zM26.646 417.037c0.001 61.726 40.691 114.167 99.333 153.207 11.769 7.838 27.665 4.646 35.5-7.125 7.813-11.759 4.623-27.622-7.125-35.456-51.801-34.487-76.541-73.353-76.542-110.626 0-22.165 9.93-45.141 31.209-68.169 21.382-23.134 53.22-45.103 93.792-64.081 81.105-37.935 192.7-61.956 311.001-61.961 14.14 0 25.626-11.486 25.626-25.621-0.013-12.361-8.802-22.656-20.459-25.045l-5.167-0.538-23.249 0.29c-116.002 2.914-225.988 27.482-309.418 66.5-44.474 20.8-82.521 46.246-109.75 75.708-27.321 29.568-44.75 64.393-44.75 102.916zM695.147 190.494c-13.811-3.017-27.482 5.73-30.502 19.541-3.012 13.807 5.743 27.435 19.541 30.46l10.961-50.001zM949.811 416.994c0 34.944-21.73 71.266-67.123 104.085l-9.374 6.541-4.045 3.29c-8.375 8.457-9.933 21.918-3.081 32.209 6.861 10.291 19.883 14.029 30.916 9.545l4.582-2.419 10.752-7.501c52.791-38.157 88.58-87.881 88.58-145.749-0.004-58.044-41.613-106.633-96-143.083-55.415-37.137-130.091-65.98-209.873-83.418l-5.457 25.003-5.504 24.998c75.482 16.495 143.701 43.366 192.337 75.959 49.647 33.276 73.284 68.454 73.289 100.54zM554.146 680.759c-0.009 22.251-18.082 40.333-40.333 40.333-22.246-0.006-40.329-18.086-40.333-40.333 0-22.252 18.082-40.327 40.333-40.333 22.276 0 40.333 18.070 40.333 40.333zM605.355 680.759c0-50.525-40.973-91.541-91.541-91.541-50.53 0.004-91.501 41.012-91.501 91.541 0.006 50.524 40.975 91.494 91.501 91.5 50.53 0 91.533-40.972 91.541-91.5z" />
<glyph unicode="&#xe942;" glyph-name="timer" d="M512 802.667c-74.364 0-147.061-22.052-208.894-63.367s-110.026-100.039-138.484-168.744c-28.459-68.706-35.905-144.307-21.397-217.242 14.508-72.939 50.319-139.934 102.903-192.521 52.585-52.582 119.581-88.393 192.519-102.903 72.934-14.507 148.535-7.061 217.242 21.397s127.428 76.651 168.742 138.483c41.318 61.833 63.369 134.532 63.369 208.896-0.111 99.686-39.761 195.259-110.251 265.748s-166.063 110.14-265.749 110.252zM512 98.667c-64.87 0-128.288 19.238-182.227 55.279s-95.98 87.266-120.806 147.2c-24.826 59.934-31.321 125.884-18.665 189.513 12.656 63.625 43.895 122.068 89.766 167.939s104.316 77.111 167.939 89.767c63.629 12.656 129.579 6.16 189.513-18.665s111.159-66.866 147.2-120.805c36.041-53.941 55.279-117.357 55.279-182.227-0.098-86.959-34.688-170.33-96.179-231.821-61.487-61.491-144.862-96.081-231.821-96.179zM687.36 602.027c4.501-4.501 7.027-10.607 7.027-16.969 0-6.366-2.526-12.471-7.027-16.973l-158.387-158.391c-4.501-4.501-10.607-7.027-16.973-7.027s-12.471 2.526-16.973 7.027c-4.501 4.501-7.027 10.607-7.027 16.973s2.526 12.471 7.027 16.973l158.391 158.391c2.231 2.229 4.877 3.997 7.787 5.204 2.914 1.207 6.033 1.827 9.186 1.827s6.272-0.621 9.186-1.827c2.91-1.206 5.559-2.974 7.787-5.204l-0.004-0.004zM392 906.667c0 6.365 2.529 12.47 7.030 16.971s10.605 7.029 16.97 7.029h192c6.366 0 12.471-2.528 16.973-7.029 4.497-4.501 7.027-10.606 7.027-16.971s-2.53-12.47-7.027-16.971c-4.501-4.501-10.607-7.029-16.973-7.029h-192c-6.365 0-12.469 2.528-16.97 7.029s-7.030 10.606-7.030 16.971z" />
<glyph unicode="&#xe943;" glyph-name="touch-id" d="M512.482 517.751c13.653 3.657 27.674-4.433 31.334-18.086 30.409-113.515-7.872-229.308-89.459-302.707-10.513-9.451-26.714-8.593-36.167 1.916-9.456 10.513-8.594 26.714 1.917 36.169 67.752 60.949 99.509 157.082 74.25 251.375-3.657 13.653 4.471 27.674 18.125 31.334zM519.125 795.792c84.484-0.003 162.953-31.431 220.25-95.042 57.152-63.452 91.243-156.648 91.955-276.835 0.077-14.127-11.324-25.664-25.455-25.749-14.131-0.077-25.664 11.328-25.754 25.459-0.653 110.801-31.94 190.86-78.788 242.875-46.703 51.841-110.852 78.123-182.208 78.125-154.342 0-286.58-147.462-243.418-314.417 3.54-13.687-4.687-27.669-18.375-31.206-13.683-3.529-27.628 4.689-31.167 18.372-52.253 202.053 107.951 378.418 292.96 378.418zM354.931 493.21c0.002 88.179 71.553 163.999 164.207 163.999 46.127 0 82.129-15.319 108.877-40.791 26.155-24.912 41.826-57.897 51.085-90.96 16.090-57.476 14.455-120.849 9.958-159.872l-2.086-15.168c-8.346-52.164-26.086-101.879-51.831-147.042-7.002-12.284-22.635-16.585-34.918-9.583-12.279 7.002-16.542 22.635-9.54 34.918l8.166 15.164c18.334 35.759 31.142 74.377 37.585 114.624l1.792 13.504c3.951 34.709 5.222 90.731-8.461 139.622-7.761 27.725-19.793 51.277-37.043 67.708-16.661 15.872-39.795 26.709-73.583 26.709-63.59 0-112.996-52.134-112.998-112.832 0-1.173 0.258-3.985 1.208-9.92 0.801-5.001 2.17-12.659 3.292-20.122 2.342-15.599 4.561-35.486 3.125-56.875-2.962-44.105-21.667-93.986-81.542-127.795-12.311-6.95-27.924-2.603-34.875 9.711-6.941 12.309-2.599 27.925 9.708 34.876 41.767 23.582 53.516 55.876 55.584 86.622 1.076 16.026-0.543 31.74-2.667 45.875-1.113 7.403-2.136 13.188-3.167 19.627-0.882 5.504-1.875 12.169-1.875 18.001zM95.313 710.172v45.625c0 48.876 9.92 89.795 38.042 117.917s69.041 38.042 117.917 38.042h45.625c14.138 0 25.583-11.445 25.583-25.583s-11.445-25.583-25.583-25.583h-45.625c-43.459 0-67.729-9.103-81.708-23.083s-23.083-38.25-23.083-81.708v-45.625c0-14.138-11.445-25.583-25.583-25.583s-25.583 11.445-25.583 25.583zM95.313 234.325v45.623c0 14.14 11.445 25.583 25.583 25.583s25.583-11.443 25.583-25.583v-45.623c0-43.46 9.103-67.729 23.083-81.707 13.98-13.982 38.249-23.087 81.708-23.087h45.625l5.167-0.499c11.662-2.389 20.417-12.715 20.417-25.084 0-14.135-11.445-25.583-25.583-25.583h-45.625c-48.876 0-89.795 9.92-117.917 38.042s-38.042 69.043-38.042 117.918zM877.542 234.325v45.623c0 14.14 11.443 25.583 25.583 25.583s25.583-11.443 25.583-25.583v-45.623c0-48.875-9.92-89.796-38.042-117.918s-69.039-38.042-117.918-38.042h-45.623c-14.14 0-25.583 11.447-25.583 25.583 0 14.14 11.443 25.583 25.583 25.583h45.623c43.46 0 67.729 9.105 81.711 23.087 13.978 13.978 23.083 38.246 23.083 81.707zM877.542 710.173v45.625c0 43.459-9.105 67.729-23.083 81.708-13.982 13.98-38.251 23.083-81.711 23.083h-45.623c-14.14 0-25.583 11.445-25.583 25.583s11.443 25.583 25.583 25.583h45.623c48.879 0 89.796-9.92 117.918-38.042s38.042-69.041 38.042-117.917v-45.625c0-14.138-11.443-25.583-25.583-25.583s-25.583 11.445-25.583 25.583z" />
</font>
</defs>
</svg>
