<?xml version="1.0" standalone="no"?>
<!DOCTYPE svg PUBLIC "-//W3C//DTD SVG 1.1//EN" "http://www.w3.org/Graphics/SVG/1.1/DTD/svg11.dtd" >
<svg xmlns="http://www.w3.org/2000/svg">
<metadata>Generated by IcoMoon</metadata>
<defs>
<font id="schkm" horiz-adv-x="1024">
<font-face units-per-em="1024" ascent="1024" descent="0" />
<missing-glyph horiz-adv-x="1024" />
<glyph unicode="&#x20;" horiz-adv-x="0" d="" />
<glyph unicode="&#xe900;" glyph-name="add" d="M512 187.733c-14.080 0-25.6 11.52-25.6 25.6v597.333c0 14.080 11.52 25.6 25.6 25.6s25.6-11.52 25.6-25.6v-597.333c0-14.080-11.52-25.6-25.6-25.6zM810.667 486.4h-597.333c-14.080 0-25.6 11.52-25.6 25.6s11.52 25.6 25.6 25.6h597.333c14.080 0 25.6-11.52 25.6-25.6s-11.52-25.6-25.6-25.6z" />
<glyph unicode="&#xe901;" glyph-name="add-circle" d="M682.667 486.4h-341.333c-14.080 0-25.6 11.52-25.6 25.6s11.52 25.6 25.6 25.6h341.333c14.080 0 25.6-11.52 25.6-25.6s-11.52-25.6-25.6-25.6zM512 315.733c-14.080 0-25.6 11.52-25.6 25.6v341.333c0 14.080 11.52 25.6 25.6 25.6s25.6-11.52 25.6-25.6v-341.333c0-14.080-11.52-25.6-25.6-25.6zM512 128c-211.627 0-384 172.373-384 384s172.373 384 384 384 384-172.373 384-384-172.373-384-384-384zM512 844.8c-183.467 0-332.8-149.333-332.8-332.8s149.333-332.8 332.8-332.8 332.8 149.333 332.8 332.8-149.333 332.8-332.8 332.8z" />
<glyph unicode="&#xe902;" glyph-name="arrow-down" d="M786.108 658.102c-10.001 9.997-26.21 9.997-36.207 0l-237.897-237.899-237.898 237.899c-9.997 9.997-26.206 9.997-36.204 0s-9.997-26.207 0-36.204l255.999-256.001c9.997-9.997 26.206-9.997 36.207 0l256 256.001c9.997 9.997 9.997 26.206 0 36.204z" />
<glyph unicode="&#xe903;" glyph-name="arrow-left" d="M658.099 786.102c9.997-9.997 9.997-26.206 0-36.204l-237.9-237.898 237.9-237.897c9.997-9.997 9.997-26.206 0-36.207-9.997-9.997-26.206-9.997-36.207 0l-255.998 256c-9.998 10.001-9.998 26.21 0 36.207l255.998 255.999c10.001 9.997 26.21 9.997 36.207 0z" />
<glyph unicode="&#xe904;" glyph-name="arrow-right" d="M365.902 786.102c-9.997-9.997-9.997-26.206 0-36.204l237.9-237.898-237.9-237.897c-9.997-9.997-9.997-26.206 0-36.207 9.998-9.997 26.207-9.997 36.204 0l256.002 256c9.997 10.001 9.997 26.21 0 36.207l-256.002 255.999c-9.997 9.997-26.206 9.997-36.204 0z" />
<glyph unicode="&#xe905;" glyph-name="arrow-up" d="M786.108 365.897c-10.001-9.997-26.21-9.997-36.207 0l-237.897 237.9-237.898-237.9c-9.997-9.997-26.206-9.997-36.204 0-9.997 10.001-9.997 26.21 0 36.207l255.999 255.999c9.997 9.997 26.206 9.997 36.207 0l256-255.999c9.997-9.997 9.997-26.206 0-36.207z" />
<glyph unicode="&#xe906;" glyph-name="backpack" d="M857.6 406.187l-75.093 50.773v59.733s0 1.28 0 1.707c0 1.707 0 3.413 0 5.547v51.2c0 110.507-65.28 205.653-158.293 249.173 0 29.867-11.52 58.027-32.853 79.36s-49.493 33.28-79.36 33.28c-61.44 0-111.36-50.347-111.787-112.64-93.44-43.093-158.293-138.667-158.293-249.173v-53.76c0-2.133-0.427-4.693-0.427-6.827 0-0.853 0-1.707 0.427-2.56v-55.040l-75.093-50.773c-7.253-4.693-11.093-12.8-11.093-21.333v-116.907c0-46.507 37.547-84.053 83.2-84.053h3.413v-3.84c0-46.507 37.547-84.053 83.2-84.053h374.187c46.080 0 83.2 37.547 83.2 84.053v3.84h3.413c46.080 0 83.2 37.547 83.2 84.053v116.907c0 8.533-4.267 16.64-11.093 21.333zM241.493 235.093h-2.987c-17.493 0-32 14.933-32 32.853v103.253l34.987 23.893v-160zM512 885.333c16.213 0 31.147-6.4 42.667-17.92 6.827-6.827 11.093-15.36 14.080-24.747-18.347 3.84-37.547 6.4-57.173 6.4s-38.827-2.133-57.6-6.4c8.107 24.747 30.72 42.667 57.6 42.667zM512 797.44c92.16 0 170.667-58.027 203.093-139.52-53.333 47.787-130.56 75.947-203.093 75.947s-151.040-30.72-204.373-80.64c31.573 84.053 110.933 144.213 204.373 144.213zM731.307 180.48c0-17.92-14.507-32.853-32-32.853h-374.613c-17.493 0-32 14.933-32 32.853v340.053c5.12 91.733 119.893 162.133 219.307 162.133s215.040-69.547 219.307-159.573v-343.040zM817.493 267.947c0-17.92-14.507-32.853-32-32.853h-3.413v160l35.413-23.893v-103.253z" />
<glyph unicode="&#xe907;" glyph-name="book" d="M170.667 149.333c-14.080 0-25.6 11.52-25.6 25.6 0 34.987 14.080 69.12 38.827 93.44 24.747 24.747 58.027 38.827 93.44 38.827h576c14.080 0 25.6-11.52 25.6-25.6s-11.52-25.6-25.6-25.6h-576c-21.76 0-41.813-8.533-57.173-23.893-14.933-14.933-23.893-35.84-23.893-57.173 0-14.080-11.52-25.6-25.6-25.6zM853.333 42.667h-576c-35.413 0-68.693 13.653-93.44 38.827-24.747 24.747-38.827 58.88-38.827 93.44v640c0 35.413 13.653 68.693 38.827 93.44 24.747 25.173 58.027 38.827 93.44 38.827h576c14.080 0 25.6-11.52 25.6-25.6v-853.333c0-14.080-11.52-25.6-25.6-25.6zM277.333 896c-21.76 0-41.813-8.533-57.173-23.893s-23.893-35.84-23.893-57.173v-640c0-21.333 8.533-42.24 23.893-57.173 15.36-15.36 35.84-23.893 57.173-23.893h550.4v802.133h-550.4z" />
<glyph unicode="&#xe908;" glyph-name="camera-contained" d="M832 800h-110.899l-54.502 81.752c-2.923 4.383-6.878 7.977-11.524 10.462s-9.83 3.786-15.1 3.786h-255.998c-5.268 0-10.455-1.302-15.099-3.788s-8.603-6.080-11.525-10.464l-54.5-81.748h-110.852c-25.452-0.029-49.853-10.152-67.851-28.149s-28.121-42.399-28.149-67.851v-448c0.029-25.451 10.152-49.852 28.149-67.853 17.997-17.997 42.399-28.117 67.851-28.147h640c25.451 0.030 49.852 10.15 67.853 28.147 17.997 18.001 28.117 42.402 28.147 67.853v448c-0.030 25.452-10.15 49.853-28.147 67.851-18.001 17.997-42.402 28.121-67.853 28.149zM656 496c0-28.48-8.444-56.32-24.269-80-15.821-23.684-38.31-42.138-64.623-53.039-26.313-10.897-55.266-13.751-83.2-8.196-27.934 5.559-53.594 19.273-73.732 39.411s-33.853 45.798-39.409 73.732c-5.556 27.934-2.705 56.887 8.195 83.2s29.356 48.8 53.039 64.623c23.68 15.823 51.52 24.268 80 24.268 38.178-0.042 74.782-15.227 101.777-42.223 26.995-26.995 42.18-63.599 42.223-101.777z" />
<glyph unicode="&#xe909;" glyph-name="camera-filled" d="M629.76 464.213c0-67.865-55.015-122.88-122.88-122.88s-122.88 55.015-122.88 122.88c0 67.865 55.015 122.88 122.88 122.88s122.88-55.015 122.88-122.88zM877.227 738.56c-11.947 11.947-28.16 18.773-45.227 18.773h-128l-64 96h-256l-64-96h-128c-17.067 0-33.28-6.827-45.227-18.773s-18.773-28.16-18.773-45.227v-448c0-17.067 6.827-33.28 18.773-45.227s28.16-18.773 45.227-18.773h640c17.067 0 33.28 6.827 45.227 18.773s18.773 28.16 18.773 45.227v448c0 17.067-6.827 33.28-18.773 45.227zM506.88 256c-114.773 0-208.213 93.44-208.213 208.213s93.44 208.213 208.213 208.213 208.213-93.44 208.213-208.213-93.44-208.213-208.213-208.213z" />
<glyph unicode="&#xe90a;" glyph-name="camera-outlined" d="M832 792h-115.162l-56.836 85.32c-2.197 3.29-5.171 5.987-8.661 7.851s-7.386 2.835-11.341 2.829h-256c-3.956 0.006-7.852-0.966-11.341-2.829s-6.464-4.56-8.659-7.851l-56.88-85.32h-115.12c-23.339 0-45.722-9.271-62.225-25.775s-25.775-38.886-25.775-62.225v-448c0-23.339 9.271-45.722 25.775-62.225s38.886-25.775 62.225-25.775h640c23.339 0 45.722 9.271 62.225 25.775s25.775 38.886 25.775 62.225v448c0 23.339-9.271 45.722-25.775 62.225s-38.886 25.775-62.225 25.775zM872 256c0-10.607-4.215-20.783-11.716-28.284s-17.677-11.716-28.284-11.716h-640c-10.609 0-20.783 4.215-28.284 11.716s-11.716 17.677-11.716 28.284v448c0 10.609 4.214 20.783 11.716 28.284s17.676 11.716 28.284 11.716h128c3.956-0.006 7.852 0.966 11.341 2.829s6.464 4.56 8.659 7.851l56.84 85.32h230.279l56.879-85.32c2.197-3.29 5.171-5.987 8.661-7.851s7.386-2.835 11.341-2.829h128c10.607 0 20.783-4.214 28.284-11.716s11.716-17.676 11.716-28.284v-448zM512 664c-33.229 0-65.707-9.853-93.336-28.313-27.628-18.46-49.161-44.698-61.876-75.397s-16.042-64.478-9.56-97.067c6.482-32.589 22.483-62.524 45.978-86.016 23.495-23.497 53.428-39.497 86.017-45.978 32.589-6.485 66.368-3.157 97.067 9.557s56.939 34.249 75.396 61.875c18.462 27.631 28.314 60.109 28.314 93.338 0 44.557-17.698 87.287-49.207 118.794-31.505 31.506-74.236 49.206-118.793 49.206zM512 376c-23.735 0-46.933 7.036-66.667 20.224-19.735 13.184-35.116 31.927-44.199 53.854s-11.459 46.054-6.829 69.333c4.63 23.279 16.059 44.659 32.843 61.44 16.781 16.784 38.161 28.213 61.44 32.843s47.407 2.254 69.333-6.829c21.926-9.082 40.67-24.461 53.854-44.199 13.184-19.733 20.224-42.931 20.224-66.667 0-31.825-12.642-62.349-35.149-84.851-22.502-22.507-53.026-35.149-84.851-35.149z" />
<glyph unicode="&#xe90b;" glyph-name="cert-filled" d="M805.12 220.587l48.213-27.307v128.427c-21.76-7.253-44.8-12.373-69.12-12.373s-47.36 5.12-69.12 12.373v-128.427l48.213 27.307c13.227 7.68 29.44 7.68 42.24 0zM629.333 373.76c-39.68 39.68-64 94.293-64 154.453 0 120.747 98.133 218.453 218.453 218.453 40.96 0 78.933-11.947 111.787-32v42.667c0 8.533-3.413 16.64-9.387 22.613s-14.080 9.387-22.613 9.387h-703.573c-8.533 0-16.64-3.413-22.613-9.387s-9.387-14.080-9.387-22.613v-512c0-8.533 3.413-16.64 9.387-22.613s14.080-9.387 22.613-9.387h469.333v160.427zM480 456.107h-192c-13.227 0-23.893 10.667-23.893 23.893s10.667 23.893 23.893 23.893h192c13.227 0 23.893-10.667 23.893-23.893s-10.667-23.893-23.893-23.893zM480 584.107h-192c-13.227 0-23.893 10.667-23.893 23.893s10.667 23.893 23.893 23.893h192c13.227 0 23.893-10.667 23.893-23.893s-10.667-23.893-23.893-23.893zM917.333 528.213c0-73.52-59.6-133.12-133.12-133.12s-133.12 59.6-133.12 133.12c0 73.52 59.6 133.12 133.12 133.12s133.12-59.6 133.12-133.12z" />
<glyph unicode="&#xe90c;" glyph-name="cert-outlined" d="M984 512c0.030 35.571-8.725 70.605-25.489 101.978-16.764 31.375-41.020 58.125-70.609 77.872-29.585 19.747-63.595 31.881-98.999 35.323-35.409 3.442-71.117-1.914-103.953-15.592-32.841-13.678-61.79-35.255-84.284-62.813s-37.837-60.245-44.655-95.159c-6.822-34.914-4.915-70.972 5.547-104.969 10.466-34.001 29.167-64.887 54.443-89.92v-230.72c0-4.092 1.041-8.111 3.034-11.686 1.988-3.571 4.86-6.579 8.341-8.73 3.477-2.155 7.445-3.379 11.533-3.567 4.087-0.183 8.154 0.674 11.81 2.505l117.282 58.637 117.282-58.637c3.328-1.66 6.997-2.526 10.718-2.522 4.454-0.009 8.823 1.242 12.599 3.601 3.482 2.146 6.357 5.146 8.35 8.717 1.997 3.571 3.046 7.59 3.051 11.682v230.72c20.284 20.041 36.39 43.908 47.377 70.221s16.636 54.545 16.623 83.059zM600 512c0 33.229 9.852 65.707 28.314 93.336 18.458 27.628 44.698 49.161 75.396 61.876s64.478 16.042 97.067 9.56c32.589-6.482 62.524-22.483 86.016-45.978 23.497-23.495 39.497-53.428 45.978-86.017 6.485-32.589 3.157-66.368-9.557-97.067s-34.249-56.939-61.875-75.396c-27.631-18.462-60.109-28.314-93.338-28.314-44.557 0-87.287 17.698-118.793 49.207-31.509 31.505-49.207 74.236-49.207 118.793zM872 166.839l-93.282 46.639c-3.328 1.664-6.997 2.53-10.718 2.53s-7.39-0.866-10.718-2.53l-93.282-46.639v156.002c31.855-17.553 67.631-26.761 104-26.761s72.145 9.207 104 26.761v-156.002zM536 256c0-6.366-2.53-12.471-7.031-16.969-4.497-4.501-10.603-7.031-16.969-7.031h-352c-14.852 0-29.096 5.901-39.598 16.401-10.502 10.505-16.402 24.747-16.402 39.599v512c0 14.852 5.9 29.096 16.402 39.598s24.746 16.402 39.598 16.402h704c14.852 0 29.094-5.9 39.599-16.402 10.5-10.502 16.401-24.746 16.401-39.598 0-6.365-2.53-12.47-7.031-16.971-4.497-4.501-10.603-7.029-16.969-7.029s-12.471 2.528-16.969 7.029c-4.501 4.501-7.031 10.606-7.031 16.971 0 2.122-0.845 4.157-2.342 5.657-1.502 1.501-3.537 2.343-5.658 2.343h-704c-2.122 0-4.157-0.843-5.657-2.343s-2.343-3.535-2.343-5.657v-512c0-2.121 0.843-4.156 2.343-5.658 1.5-1.498 3.535-2.342 5.657-2.342h352c6.366 0 12.471-2.53 16.969-7.031 4.501-4.497 7.031-10.603 7.031-16.969zM472 480c0-6.366-2.53-12.471-7.031-16.969-4.497-4.501-10.603-7.031-16.969-7.031h-160c-6.365 0-12.47 2.53-16.971 7.031-4.501 4.497-7.029 10.603-7.029 16.969s2.528 12.471 7.029 16.969c4.501 4.501 10.606 7.031 16.971 7.031h160c6.366 0 12.471-2.53 16.969-7.031 4.501-4.497 7.031-10.603 7.031-16.969zM472 608c0-6.365-2.53-12.471-7.031-16.969-4.497-4.501-10.603-7.031-16.969-7.031h-160c-6.365 0-12.47 2.53-16.971 7.031-4.501 4.497-7.029 10.604-7.029 16.969s2.528 12.47 7.029 16.971c4.501 4.501 10.606 7.029 16.971 7.029h160c6.366 0 12.471-2.528 16.969-7.029 4.501-4.501 7.031-10.606 7.031-16.971z" />
<glyph unicode="&#xe90d;" glyph-name="check" d="M384 273.067c-6.4 0-13.227 2.56-17.92 7.68l-213.333 213.333c-9.813 9.813-9.813 26.027 0 36.267s26.027 9.813 36.267 0l195.413-195.413 451.413 451.413c9.813 9.813 26.027 9.813 36.267 0s9.813-26.027 0-36.267l-469.333-469.333c-5.12-5.12-11.52-7.68-17.92-7.68z" />
<glyph unicode="&#xe90e;" glyph-name="clock" d="M512 59.733c-249.173 0-452.267 202.667-452.267 452.267s203.093 452.267 452.267 452.267 452.267-203.093 452.267-452.267-202.667-452.267-452.267-452.267zM512 913.067c-221.013 0-401.067-180.053-401.067-401.067s180.053-401.067 401.067-401.067 401.067 180.053 401.067 401.067-180.053 401.067-401.067 401.067zM682.667 401.067c-3.84 0-7.68 0.853-11.52 2.56l-170.667 85.333c-8.533 4.267-14.080 13.227-14.080 23.040v256c0 14.080 11.52 25.6 25.6 25.6s25.6-11.52 25.6-25.6v-240.213l156.587-78.080c12.8-6.4 17.92-21.76 11.52-34.56-4.693-8.96-13.653-14.080-23.040-14.080z" />
<glyph unicode="&#xe90f;" glyph-name="close" d="M256 230.4c-6.4 0-13.227 2.56-17.92 7.68-9.813 9.813-9.813 26.027 0 36.267l512 512c9.813 9.813 26.027 9.813 36.267 0s9.813-26.027 0-36.267l-512-512c-5.12-5.12-11.52-7.68-17.92-7.68zM768 230.4c-6.4 0-13.227 2.56-17.92 7.68l-512 512c-9.813 9.813-9.813 26.027 0 36.267s26.027 9.813 36.267 0l512-512c9.813-9.813 9.813-26.027 0-36.267-5.12-5.12-11.52-7.68-17.92-7.68z" />
<glyph unicode="&#xe910;" glyph-name="confirm" d="M512 981.333c-258.987 0-469.333-210.347-469.333-469.333s210.347-469.333 469.333-469.333 469.333 210.347 469.333 469.333-210.347 469.333-469.333 469.333zM448 300.373l-192 192 64 64 128-128 254.293 254.293 64-60.16-318.293-321.707z" />
<glyph unicode="&#xe911;" glyph-name="continue" d="M533.333 230.4c-6.4 0-13.227 2.56-17.92 7.68-9.813 9.813-9.813 26.027 0 36.267l212.48 212.48h-471.893c-14.080 0-25.6 11.52-25.6 25.6s11.52 25.6 25.6 25.6h471.467l-212.48 212.48c-5.12 5.12-7.68 11.52-7.68 17.92s2.56 13.227 7.68 17.92c9.813 9.813 26.027 9.813 36.267 0l256-256s0.427-0.427 0.853-0.853c0 0 0 0 0 0v0c2.133-2.133 3.84-4.693 4.693-7.68v0c1.28-2.987 2.133-6.4 2.133-9.813v0c0-3.84-0.853-7.253-2.133-10.24v0c-1.28-2.56-2.56-5.12-4.693-7.68v0s0 0 0 0c0 0-0.427-0.427-0.853-0.853l-256-256c-5.12-5.12-11.52-7.68-17.92-7.68z" />
<glyph unicode="&#xe912;" glyph-name="coupon" d="M597.333 149.333h-171.093c-166.827 0-250.88 0-307.2 56.32-41.387 40.96-51.627 98.133-55.040 177.067-0.853 18.347-1.28 29.867 4.693 40.107 5.973 10.667 17.067 16.64 46.080 33.28 10.24 5.547 18.347 13.653 24.32 23.467 5.547 9.813 8.96 20.907 8.96 32.427s-2.987 22.613-8.96 32.427c-5.973 9.813-14.080 17.92-23.893 23.467-28.587 15.787-40.533 22.613-46.507 32.853-5.973 10.667-5.547 21.76-4.693 40.107 3.413 78.933 13.653 136.107 55.040 177.067 56.32 56.32 139.947 56.32 307.2 56.32h171.093c166.827 0 250.88 0 307.2-56.32 41.387-40.96 51.627-98.133 55.040-177.067 0.853-18.773 1.28-29.867-4.693-40.533s-17.92-17.067-46.507-33.28c-9.813-5.547-18.347-13.653-23.893-23.467s-8.96-20.907-8.96-32.427 2.987-22.613 8.96-32.427c5.547-9.813 14.080-17.92 23.893-23.467 29.44-16.213 40.533-22.613 46.507-32.853 5.973-10.667 5.547-21.333 4.693-39.68-3.413-79.787-13.653-136.96-55.040-177.92-56.32-56.32-140.373-56.32-307.2-56.32zM104.96 400.213s1.707-8.107 2.133-15.787c3.413-81.067 14.933-121.173 42.24-148.907 43.947-43.947 121.6-43.947 276.907-43.947h171.093c155.307 0 232.96 0 276.907 43.947 27.307 27.307 38.827 67.413 42.24 148.48 0 8.533 0.853 16.64 0 19.2-0.853 0-15.36 7.253-29.44 15.36-16.64 9.387-30.293 22.613-40.107 39.253s-14.507 34.987-14.507 54.187 5.12 37.547 14.507 54.187c9.813 16.213 23.467 29.867 40.107 39.253 14.080 7.68 28.587 15.787 31.573 18.773-1.28-0.853-1.707 7.253-2.133 14.933-3.413 81.493-14.933 122.027-42.24 149.333-43.947 43.947-121.6 43.947-276.907 43.947h-171.093c-155.307 0-232.96 0-276.907-43.947-27.307-27.307-38.827-67.413-42.24-148.48 0-8.107-0.853-16.64 0-19.2 0.853 0 15.36-7.68 29.44-15.36 16.64-9.387 30.293-22.613 40.107-39.253 9.813-16.213 14.507-34.987 14.507-54.187s-5.12-37.547-14.507-54.187c-9.813-16.213-23.467-29.867-40.107-39.253-14.933-8.107-28.587-16.213-31.573-18.773 0 0 0 0 0 0zM384 362.667c-5.547 0-11.093 2.133-14.933 6.4-8.533 8.533-8.533 21.76 0 30.293l256 256c8.533 8.533 21.76 8.533 30.293 0s8.533-21.76 0-30.293l-256-256c-4.267-4.267-9.813-6.4-14.933-6.4zM661.333 405.333c0-11.52-4.693-22.187-12.373-30.293s-18.773-12.373-30.293-12.373-22.187 4.693-30.293 12.373-12.373 18.773-12.373 30.293 4.693 22.187 12.373 30.293 18.773 12.373 30.293 12.373 22.187-4.693 30.293-12.373 12.373-18.773 12.373-30.293zM448 618.667c0-11.52-4.693-22.187-12.373-30.293s-18.773-12.373-30.293-12.373-22.187 4.693-30.293 12.373c-8.107 8.107-12.373 18.773-12.373 30.293s4.693 22.187 12.373 30.293c8.107 8.107 18.773 12.373 30.293 12.373s22.187-4.693 30.293-12.373c8.107-8.107 12.373-18.773 12.373-30.293z" />
<glyph unicode="&#xe913;" glyph-name="date" d="M844.8 102.4h-665.6c-30.72 0-76.8 20.907-76.8 78.080v577.707c0 31.573 20.48 78.080 76.8 78.080h665.6c30.72 0 76.8-20.907 76.8-78.080v-577.707c0-31.573-20.48-78.080-76.8-78.080zM844.373 785.067h-665.173c-21.76 0-25.173-17.067-25.6-27.307v-577.28c0-21.76 14.080-26.453 26.027-26.88h665.173c21.76 0 25.173 17.067 25.6 27.307v577.28c0 21.76-14.080 26.453-26.027 26.88zM896 571.733h-768c-14.080 0-25.6 11.52-25.6 25.6s11.52 25.6 25.6 25.6h768c14.080 0 25.6-11.52 25.6-25.6s-11.52-25.6-25.6-25.6zM305.92 713.813c-14.080 0-25.6 11.52-25.6 25.6v170.667c0 14.080 11.52 25.6 25.6 25.6s25.6-11.52 25.6-25.6v-170.667c0-14.080-11.52-25.6-25.6-25.6zM732.587 713.813c-14.080 0-25.6 11.52-25.6 25.6v170.667c0 14.080 11.52 25.6 25.6 25.6s25.6-11.52 25.6-25.6v-170.667c0-14.080-11.52-25.6-25.6-25.6z" />
<glyph unicode="&#xe914;" glyph-name="delete" d="M426.667 800v-10.667h170.667v10.667c0 22.632-8.99 44.337-24.994 60.34s-37.709 24.994-60.339 24.994c-22.63 0-44.335-8.99-60.339-24.994s-24.994-37.708-24.994-60.34zM373.333 789.333v10.667c0 36.777 14.609 72.047 40.614 98.052s61.274 40.614 98.052 40.614c36.779 0 72.047-14.609 98.052-40.614s40.614-61.276 40.614-98.052v-10.667h240c7.074 0 13.854-2.81 18.854-7.811 5.005-5.001 7.812-11.784 7.812-18.856s-2.807-13.855-7.812-18.856c-5.001-5.001-11.78-7.811-18.854-7.811h-62.229l-42.667-508.928c-3.243-38.647-20.885-74.667-49.434-100.919s-65.916-40.819-104.7-40.819h-239.275c-38.78 0.004-76.143 14.575-104.687 40.828-28.544 26.249-46.184 62.268-49.425 100.911l-42.667 508.928h-62.251c-7.072 0-13.855 2.81-18.856 7.811s-7.811 11.784-7.811 18.856c0 7.072 2.81 13.855 7.811 18.856s11.784 7.811 18.856 7.811h240zM291.392 231.531c2.124-25.318 13.681-48.917 32.382-66.116s43.181-26.748 68.589-26.748h239.275c25.412-0.004 49.899 9.54 68.604 26.739 18.705 17.203 30.263 40.802 32.388 66.125l42.283 504.469h-525.824l42.304-504.469zM458.667 592c0 3.503-0.691 6.97-2.031 10.205s-3.302 6.175-5.781 8.651c-2.475 2.476-5.414 4.441-8.649 5.781-3.238 1.34-6.703 2.030-10.206 2.030s-6.97-0.69-10.205-2.030c-3.235-1.34-6.175-3.305-8.651-5.781s-4.441-5.416-5.781-8.651c-1.34-3.235-2.030-6.702-2.030-10.205v-309.333c0-3.503 0.69-6.967 2.030-10.206 1.34-3.234 3.305-6.174 5.781-8.649 2.476-2.479 5.416-4.442 8.651-5.781s6.702-2.031 10.205-2.031c3.503 0 6.967 0.691 10.206 2.031 3.234 1.34 6.174 3.302 8.649 5.781 2.479 2.475 4.442 5.414 5.781 8.649 1.34 3.238 2.031 6.703 2.031 10.206v309.333zM592 618.667c14.72 0 26.667-11.947 26.667-26.667v-309.333c0-7.074-2.807-13.854-7.812-18.854-5.001-5.005-11.78-7.812-18.854-7.812s-13.854 2.807-18.854 7.812c-5.005 5.001-7.812 11.78-7.812 18.854v309.333c0 14.72 11.947 26.667 26.667 26.667z" />
<glyph unicode="&#xe915;" glyph-name="download" d="M327.032 566.985c-4.441 4.514-6.918 10.598-6.894 16.93 0.025 6.327 2.551 12.395 7.027 16.872s10.541 7.005 16.872 7.031c6.331 0.026 12.417-2.45 16.931-6.89l127.032-126.999v390.071c0 6.365 2.53 12.47 7.031 16.971 4.497 4.501 10.603 7.029 16.969 7.029s12.471-2.528 16.969-7.029c4.501-4.501 7.031-10.606 7.031-16.971v-390.067l127.031 126.999c2.231 2.228 4.877 3.996 7.787 5.201 2.914 1.206 6.033 1.826 9.186 1.825s6.272-0.622 9.186-1.829c2.91-1.207 5.555-2.975 7.782-5.204 2.231-2.229 3.998-4.877 5.201-7.787 1.207-2.914 1.826-6.033 1.826-9.186s-0.623-6.272-1.826-9.182c-1.207-2.914-2.978-5.559-5.205-7.787l-168-167.962c-0.397-0.393-0.858-0.67-1.271-1.037-0.329-0.277-0.666-0.555-1.011-0.823-0.977-0.768-2.018-1.459-3.106-2.061l-0.393-0.209c-1.293-0.691-2.65-1.259-4.049-1.698h-0.004c-4.621-1.596-9.647-1.596-14.268 0-1.404 0.439-2.761 1.007-4.053 1.698l-0.393 0.209c-1.088 0.602-2.129 1.293-3.106 2.061-0.346 0.269-0.683 0.542-1.011 0.823-0.414 0.363-0.879 0.644-1.271 1.041l-168 167.957zM864 440c-6.366 0-12.471-2.53-16.969-7.031-4.501-4.497-7.031-10.603-7.031-16.969v-224c-0.004-2.121-0.849-4.156-2.347-5.653s-3.533-2.342-5.653-2.347h-640c-2.121 0.004-4.154 0.849-5.653 2.347s-2.344 3.533-2.347 5.653v224c0 6.366-2.528 12.471-7.029 16.969-4.501 4.501-10.606 7.031-16.971 7.031s-12.47-2.53-16.971-7.031c-4.501-4.497-7.029-10.603-7.029-16.969v-224c0.017-14.848 5.923-29.082 16.421-39.578 10.499-10.5 24.733-16.405 39.579-16.422h640c14.848 0.017 29.082 5.922 39.578 16.422 10.5 10.496 16.405 24.73 16.422 39.578v224c0 6.366-2.53 12.471-7.031 16.969-4.497 4.501-10.603 7.031-16.969 7.031z" />
<glyph unicode="&#xe916;" glyph-name="edit" d="M850.773 62.72h-722.773c-14.080 0-25.6 11.52-25.6 25.6s11.52 25.6 25.6 25.6h722.773c14.080 0 25.6-11.52 25.6-25.6s-11.52-25.6-25.6-25.6zM195.413 197.973c-6.827 0-13.227 2.56-17.92 7.68-6.4 6.4-8.96 16.213-6.4 25.173l64 223.573c1.28 4.267 3.413 8.107 6.4 11.093l430.933 430.933c39.68 39.68 108.373 39.68 148.053 0l47.787-47.787c40.96-40.96 40.96-107.093 0-148.053l-431.36-431.36c-2.987-2.987-6.827-5.12-11.093-6.4l-223.573-64c-2.133-0.853-4.693-0.853-7.253-0.853zM282.027 433.92l-49.493-172.8 172.8 49.493 426.667 426.667c20.907 20.907 20.907 54.613 0 75.52l-47.787 47.787c-20.48 20.48-55.467 20.48-75.52 0l-426.667-426.667zM418.987 287.573v0 0zM786.347 629.333c-6.4 0-13.227 2.56-17.92 7.68l-159.573 159.573c-9.813 9.813-9.813 26.027 0 36.267s26.027 9.813 36.267 0l159.573-159.573c9.813-9.813 9.813-26.027 0-36.267-5.12-5.12-11.52-7.68-17.92-7.68z" />
<glyph unicode="&#xe917;" glyph-name="email" d="M919.753 803.26c-0.026 0.2-0.060 0.4-0.094 0.6-0.213 1.339-0.542 2.657-0.981 3.94-0.060 0.18-0.128 0.36-0.196 0.536-0.478 1.294-1.067 2.544-1.762 3.736-0.098 0.165-0.196 0.329-0.299 0.492-0.751 1.216-1.609 2.364-2.56 3.428-0.064 0.072-0.102 0.156-0.166 0.224s-0.137 0.112-0.196 0.176c-0.981 1.041-2.048 1.995-3.191 2.848-0.154 0.112-0.303 0.228-0.452 0.336-1.139 0.802-2.342 1.504-3.597 2.096-0.162 0.076-0.307 0.156-0.469 0.228-1.259 0.56-2.564 1.010-3.904 1.344l-0.491 0.128c-1.314 0.299-2.654 0.486-4.002 0.56l-0.657 0.032c-0.243 0.008-0.486 0.036-0.734 0.036h-768c-0.252 0-0.496-0.028-0.748-0.040-0.212-0.004-0.424-0.016-0.636-0.032-1.351-0.073-2.693-0.26-4.012-0.56l-0.48-0.124c-1.344-0.334-2.655-0.785-3.92-1.348-0.152-0.068-0.3-0.148-0.456-0.22-1.259-0.594-2.463-1.297-3.6-2.1-0.152-0.108-0.3-0.224-0.448-0.336-1.148-0.852-2.217-1.806-3.196-2.848-0.064-0.064-0.136-0.108-0.196-0.176-0.064-0.068-0.104-0.152-0.168-0.224-0.954-1.064-1.81-2.211-2.56-3.428l-0.3-0.488c-0.692-1.194-1.282-2.445-1.76-3.74l-0.2-0.532c-0.438-1.283-0.766-2.601-0.98-3.94-0.032-0.204-0.068-0.4-0.092-0.604-0.156-1.080-0.239-2.169-0.248-3.26v-544c0.017-14.848 5.923-29.082 16.421-39.578 10.499-10.5 24.733-16.405 39.579-16.422h704c14.848 0.017 29.082 5.922 39.578 16.422 10.5 10.496 16.405 24.73 16.422 39.578v544c-0.009 1.091-0.094 2.18-0.247 3.26zM872 278.558l-254.665 233.442 254.665 233.44v-466.882zM152 745.44l254.664-233.44-254.664-233.442v466.882zM512 480.559l-322.3 295.441h644.6l-322.3-295.441zM442.185 479.441l53.598-49.135c4.429-4.058 10.214-6.306 16.218-6.306 6.007 0 11.793 2.249 16.222 6.306l53.598 49.135 252.48-231.441h-644.6l252.485 231.441z" />
<glyph unicode="&#xe918;" glyph-name="enlarge" d="M856 832v-192c0-6.365-2.53-12.47-7.031-16.971-4.497-4.501-10.603-7.029-16.969-7.029s-12.471 2.528-16.969 7.029c-4.501 4.501-7.031 10.606-7.031 16.971v134.060l-183.031-183.033c-4.514-4.437-10.598-6.916-16.93-6.891-6.332 0.030-12.395 2.556-16.875 7.031-4.476 4.48-7.002 10.544-7.027 16.875-0.021 6.331 2.453 12.416 6.895 16.929l183.027 183.028h-134.059c-6.366 0-12.471 2.528-16.969 7.029-4.501 4.501-7.031 10.606-7.031 16.971s2.53 12.47 7.031 16.971c4.497 4.501 10.603 7.029 16.969 7.029h192c1.485-0.004 2.97-0.146 4.429-0.424 0.073-0.016 0.149-0.020 0.218-0.036 1.425-0.284 2.825-0.698 4.173-1.236 0.102-0.040 0.201-0.068 0.303-0.112 1.361-0.562 2.662-1.248 3.895-2.048 0.081-0.056 0.175-0.1 0.265-0.16 2.658-1.769 4.937-4.049 6.707-6.708 0.055-0.080 0.098-0.168 0.149-0.252 0.802-1.234 1.489-2.54 2.052-3.9l0.115-0.304c0.538-1.349 0.951-2.744 1.237-4.168l0.034-0.236c0.277-1.456 0.418-2.934 0.422-4.416zM399.032 432.973l-183.032-183.031v134.059c0 6.366-2.528 12.471-7.029 16.969-4.501 4.501-10.606 7.031-16.971 7.031s-12.47-2.53-16.971-7.031c-4.501-4.497-7.029-10.603-7.029-16.969v-192c0.005-1.481 0.147-2.961 0.424-4.416 0.012-0.081 0.020-0.158 0.036-0.235 0.284-1.425 0.698-2.82 1.236-4.169 0.040-0.102 0.068-0.201 0.112-0.303 0.562-1.361 1.249-2.667 2.052-3.904 0.052-0.077 0.096-0.166 0.152-0.252 1.77-2.658 4.052-4.941 6.712-6.711 0.080-0.055 0.172-0.098 0.26-0.158 1.231-0.802 2.534-1.485 3.892-2.044l0.308-0.115c1.348-0.538 2.743-0.951 4.168-1.237 0.076-0.013 0.156-0.017 0.232-0.034 1.456-0.277 2.934-0.418 4.416-0.422h192c6.365 0 12.47 2.53 16.971 7.031 4.501 4.497 7.029 10.603 7.029 16.969s-2.528 12.471-7.029 16.969c-4.501 4.501-10.606 7.031-16.971 7.031h-134.060l183.028 183.027c4.442 4.514 6.916 10.598 6.895 16.93-0.026 6.332-2.551 12.395-7.027 16.875-4.48 4.476-10.543 7.002-16.874 7.031-6.331 0.026-12.417-2.453-16.931-6.891z" />
<glyph unicode="&#xe919;" glyph-name="error" d="M511.996 977.456c-92.058 0-182.048-27.299-258.592-78.443s-136.202-123.839-171.431-208.89c-35.229-85.051-44.447-178.639-26.487-268.926 17.96-90.291 62.29-173.227 127.385-238.323 65.095-65.092 148.031-109.423 238.321-127.381 90.289-17.963 183.878-8.742 268.925 26.483 85.052 35.23 157.747 94.891 208.892 171.435s78.443 166.532 78.443 258.59c0 61.124-12.041 121.652-35.43 178.123s-57.677 107.783-100.898 151.004c-43.221 43.221-94.532 77.507-151.006 100.898-56.469 23.392-116.996 35.431-178.121 35.431zM731.226 358.865l-65.63-65.626-153.6 153.135-153.134-153.6-66.095 66.091 153.599 153.135-153.599 153.136 66.095 66.095 153.134-153.6 153.135 153.135 65.63-65.629-153.135-153.136 153.6-153.135z" />
<glyph unicode="&#xe91a;" glyph-name="external-link" d="M213.329 742.4c-15.842 0-31.036-6.293-42.238-17.495s-17.495-26.396-17.495-42.238v-469.334c0-15.842 6.293-31.036 17.495-42.236 11.202-11.204 26.396-17.498 42.238-17.498h469.333c15.842 0 31.036 6.293 42.24 17.498 11.2 11.2 17.493 26.394 17.493 42.236v256c0 14.14 11.46 25.6 25.6 25.6s25.6-11.46 25.6-25.6v-256c0-29.423-11.686-57.638-32.491-78.443s-49.020-32.491-78.443-32.491h-469.333c-29.421 0-57.638 11.686-78.442 32.491s-32.492 49.020-32.492 78.443v469.334c0 29.421 11.688 57.638 32.492 78.441s49.021 32.492 78.442 32.492h256c14.14 0 25.6-11.462 25.6-25.6s-11.46-25.6-25.6-25.6h-256zM614.396 896c0 14.138 11.46 25.6 25.6 25.6h256c14.14 0 25.6-11.462 25.6-25.6v-256c0-14.138-11.46-25.6-25.6-25.6s-25.6 11.462-25.6 25.6v230.4h-230.4c-14.14 0-25.6 11.462-25.6 25.6zM914.099 914.102c9.997-9.997 9.997-26.206 0-36.204l-469.333-469.335c-9.997-9.997-26.208-9.997-36.205 0-9.998 10.001-9.998 26.21 0 36.207l469.332 469.332c10.001 9.997 26.21 9.997 36.207 0z" />
<glyph unicode="&#xe91b;" glyph-name="eye" d="M989.239 525.001c-1.404 3.157-35.277 78.303-110.609 153.639-100.339 100.348-227.123 153.392-366.63 153.392s-266.291-53.040-366.627-153.388c-75.336-75.34-109.212-150.49-110.616-153.647-1.818-4.092-2.757-8.521-2.757-12.996s0.939-8.905 2.757-12.996c1.408-3.162 35.28-78.289 110.62-153.617 100.336-100.322 227.112-153.357 366.623-153.357s266.287 53.035 366.626 153.357c75.337 75.328 109.21 150.451 110.618 153.617 1.818 4.092 2.756 8.521 2.756 12.996s-0.939 8.905-2.756 12.996l-0.004 0.004zM512 256.026c-123.119 0-230.695 44.745-319.739 132.988-36.594 36.314-67.735 77.739-92.452 122.987 24.716 45.252 55.856 86.689 92.452 123.015 89.044 88.264 196.624 133.016 319.739 133.016s230.699-44.752 319.74-133.016c36.599-36.325 67.742-77.759 92.459-123.015-28.855-53.803-154.47-255.962-412.198-255.962v-0.013zM512 703.999c-37.973 0-75.093-11.261-106.669-32.358-31.574-21.097-56.183-51.084-70.715-86.165-14.532-35.085-18.334-73.69-10.926-110.933s25.695-71.458 52.547-98.308c26.851-26.85 61.063-45.137 98.307-52.548 37.244-7.407 75.849-3.605 110.933 10.927s65.071 39.142 86.165 70.716c21.099 31.573 32.358 68.698 32.358 106.671-0.055 50.901-20.305 99.706-56.299 135.7s-84.796 56.241-135.701 56.299zM512 384c-25.314 0-50.061 7.505-71.113 21.572-21.049 14.063-37.455 34.057-47.143 57.442-9.688 23.39-12.223 49.126-7.284 73.958 4.939 24.828 17.13 47.633 35.031 65.536 17.903 17.901 40.708 30.092 65.536 35.031 24.832 4.939 50.569 2.404 73.958-7.284 23.386-9.688 43.379-26.094 57.442-47.143 14.067-21.052 21.572-45.798 21.572-71.113-0.038-33.937-13.538-66.47-37.534-90.466s-56.529-37.495-90.466-37.534z" />
<glyph unicode="&#xe91c;" glyph-name="eye-closed" d="M923.55 372.749c2.133-3.639 3.529-7.667 4.1-11.849s0.311-8.435-0.768-12.514c-1.079-4.079-2.957-7.906-5.517-11.26-2.564-3.349-5.769-6.165-9.421-8.273-3.657-2.112-7.693-3.477-11.874-4.019-4.186-0.546-8.439-0.256-12.51 0.849-4.075 1.105-7.889 3.008-11.221 5.594-3.337 2.586-6.127 5.803-8.213 9.472l-73.527 127.356c-43.324-29.013-90.961-50.991-141.154-65.114l23.253-131.857c1.472-8.358-0.435-16.96-5.303-23.91-4.868-6.955-12.301-11.686-20.655-13.163-1.847-0.324-3.721-0.486-5.598-0.486-7.514 0.009-14.788 2.667-20.544 7.501-5.751 4.834-9.626 11.537-10.931 18.94l-22.874 129.711c-52.373-7.65-105.579-7.633-157.948 0.055l-22.871-129.707c-1.306-7.403-5.175-14.114-10.93-18.948-5.755-4.838-13.028-7.492-20.546-7.505-1.875 0-3.746 0.162-5.592 0.486-8.358 1.476-15.789 6.208-20.657 13.163-4.868 6.95-6.776 15.552-5.303 23.91l23.256 131.913c-50.131 14.144-97.712 36.126-140.98 65.126l-73.96-128.102c-2.072-3.695-4.858-6.942-8.194-9.549-3.337-2.611-7.158-4.531-11.242-5.653-4.084-1.118-8.351-1.421-12.552-0.879s-8.253 1.907-11.921 4.028c-3.668 2.116-6.879 4.941-9.447 8.311-2.568 3.366-4.442 7.211-5.512 11.311-1.071 4.096-1.318 8.367-0.726 12.561s2.010 8.226 4.174 11.87l77.988 135.078c-27.201 23.411-52.214 49.25-74.728 77.197-2.677 3.264-4.683 7.027-5.9 11.072-1.217 4.042-1.622 8.286-1.191 12.486s1.688 8.274 3.7 11.986c2.012 3.712 4.739 6.989 8.024 9.643s7.062 4.63 11.114 5.817c4.052 1.187 8.299 1.56 12.496 1.098s8.261-1.75 11.958-3.79c3.697-2.040 6.953-4.791 9.583-8.096 24.989-31.094 53.507-59.182 84.98-83.694 0.252-0.175 0.48-0.375 0.724-0.559 78.1-60.762 174.461-93.312 273.406-92.356 98.923-0.951 195.26 31.582 273.348 92.318 0.213 0.158 0.41 0.324 0.627 0.478 31.535 24.542 60.105 52.668 85.133 83.813 5.359 6.531 13.077 10.679 21.478 11.54s16.806-1.633 23.373-6.941c6.571-5.307 10.778-12.996 11.699-21.391 0.926-8.395-1.506-16.815-6.763-23.424-22.562-28.002-47.629-53.884-74.889-77.333l77.547-134.31z" />
<glyph unicode="&#xe91d;" glyph-name="face-id" d="M328.107 532.907c-14.080 0-25.6 11.52-25.6 25.6v90.88c0 14.080 11.52 25.6 25.6 25.6s25.6-11.52 25.6-25.6v-90.88c0-14.080-11.52-25.6-25.6-25.6zM716.373 532.907c-14.080 0-25.6 11.52-25.6 25.6v90.88c0 14.080 11.52 25.6 25.6 25.6s25.6-11.52 25.6-25.6v-90.88c0-14.080-11.52-25.6-25.6-25.6zM473.173 409.173c-14.080 0-25.6 11.52-25.6 25.6s11.52 25.6 25.6 25.6c25.6 0 31.147 5.547 31.147 31.147v159.147c0 14.080 11.52 25.6 25.6 25.6s25.6-11.52 25.6-25.6v-159.147c0-53.76-28.587-82.347-82.347-82.347zM512 240.64c-57.173 0-114.347 16.213-152.747 48.213-10.667 8.96-12.373 25.173-3.413 35.84s25.173 12.373 36.267 3.413c58.027-48.64 181.333-48.64 239.787 0 10.667 8.96 26.88 7.68 35.84-3.413 8.96-10.667 7.68-26.88-3.413-35.84-38.4-32-95.573-48.213-152.747-48.213zM103.253 711.253c-14.080 0-25.6 11.52-25.6 25.6v47.787c0 110.507 51.627 161.707 161.707 161.707h47.787c14.080 0 25.6-11.52 25.6-25.6s-11.52-25.6-25.6-25.6h-47.787c-82.773 0-110.507-27.733-110.507-110.507v-47.787c0-14.080-11.52-25.6-25.6-25.6zM287.147 77.653h-47.787c-110.507 0-161.707 51.627-161.707 161.707v47.787c0 14.080 11.52 25.6 25.6 25.6s25.6-11.52 25.6-25.6v-47.787c0-82.773 27.733-110.507 110.507-110.507h47.787c14.080 0 25.6-11.52 25.6-25.6s-11.52-25.6-25.6-25.6zM784.64 77.653h-47.787c-14.080 0-25.6 11.52-25.6 25.6s11.52 25.6 25.6 25.6h47.787c82.773 0 110.507 28.16 110.507 110.507v47.787c0 14.080 11.52 25.6 25.6 25.6s25.6-11.52 25.6-25.6v-47.787c0-110.507-51.627-161.707-161.707-161.707zM920.747 711.253c-14.080 0-25.6 11.52-25.6 25.6v47.787c0 82.773-28.16 110.507-110.507 110.507h-47.787c-14.080 0-25.6 11.52-25.6 25.6s11.52 25.6 25.6 25.6h47.787c110.507 0 161.707-51.627 161.707-161.707v-47.787c0-14.080-11.52-25.6-25.6-25.6z" />
<glyph unicode="&#xe91e;" glyph-name="fb" d="M597.333 450.854h106.667l42.667 170.666h-149.333v85.333c0 43.947 0 85.333 85.333 85.333h64v143.36c-13.909 1.835-66.432 5.973-121.899 5.973-115.84 0-198.101-70.699-198.101-200.533v-119.467h-128v-170.666h128v-362.667h170.667v362.667z" />
<glyph unicode="&#xe91f;" glyph-name="flag-filled" d="M896 808.687v-480c0-4.966-1.156-9.869-3.379-14.31-2.223-4.446-5.449-8.307-9.421-11.29-60.57-45.419-118.481-61.713-173.722-61.713-74.982 0-145.033 30.020-210.086 57.903-106.848 45.794-199.7 85.525-307.392 12.877v-175.467c0-8.486-3.372-16.627-9.373-22.626-6.001-6.003-14.141-9.374-22.627-9.374s-16.626 3.371-22.627 9.374c-6.001 5.999-9.373 14.14-9.373 22.626v672c0 0.228 0.028 0.44 0.032 0.668 0.025 1.087 0.101 2.172 0.228 3.252 0.064 0.504 0.148 1.004 0.232 1.504 0.091 0.55 0.197 1.099 0.316 1.644 0.1 0.448 0.22 0.892 0.344 1.332 0.152 0.56 0.304 1.12 0.488 1.668 0.144 0.44 0.312 0.88 0.48 1.316 0.2 0.52 0.392 1.032 0.616 1.536 0.208 0.48 0.444 0.94 0.68 1.408 0.22 0.44 0.44 0.88 0.68 1.308 0.28 0.504 0.588 0.992 0.896 1.48 0.24 0.376 0.472 0.752 0.724 1.116 0.346 0.491 0.706 0.971 1.080 1.44 0.268 0.348 0.536 0.692 0.82 1.024 0.372 0.44 0.768 0.864 1.168 1.288 0.332 0.352 0.668 0.7 1.020 1.040 0.372 0.36 0.768 0.708 1.16 1.056 0.422 0.371 0.855 0.731 1.296 1.080 0.184 0.14 0.348 0.3 0.54 0.44 142.784 107.092 270.828 52.236 383.799 3.816 111.070-47.6 207.002-88.716 320.201-3.812 4.753 3.566 10.406 5.737 16.324 6.271 5.922 0.534 11.87-0.591 17.186-3.249s9.788-6.743 12.911-11.799c3.123-5.055 4.779-10.88 4.779-16.823v-0.004z" />
<glyph unicode="&#xe920;" glyph-name="flag-outline" d="M682.667 298.667c-69.12 0-125.44 22.613-180.053 44.373-52.48 20.907-101.973 40.96-161.28 40.96-113.067 0-152.747-35.413-152.747-35.413-7.68-6.827-18.773-8.96-27.733-4.693-9.387 4.267-15.36 13.227-15.36 23.040v512c0 6.827 2.56 13.227 7.68 17.92 5.12 5.12 54.187 50.347 188.587 50.347 69.12 0 125.44-22.613 180.053-44.373s101.973-40.96 161.28-40.96c113.067 0 152.747 34.987 152.747 35.413 7.68 6.827 18.773 8.96 27.733 4.693 9.387-4.267 15.36-13.227 15.36-23.040v-512c0-6.827-2.56-13.227-7.68-17.92-5.12-5.12-54.187-50.347-188.587-50.347zM341.333 435.2c69.12 0 125.44-22.613 180.053-44.373s101.973-40.96 161.28-40.96c85.333 0 128.853 20.053 145.067 29.867v455.253c-29.867-12.373-75.947-23.893-145.067-23.893s-125.44 22.613-180.053 44.373c-52.48 20.907-101.973 40.96-161.28 40.96-85.333 0-128.853-20.053-145.067-29.867v-454.827c29.44 12.373 75.947 23.893 145.067 23.893zM170.667 42.667c-14.080 0-25.6 11.52-25.6 25.6v298.667c0 14.080 11.52 25.6 25.6 25.6s25.6-11.52 25.6-25.6v-298.667c0-14.080-11.52-25.6-25.6-25.6z" />
<glyph unicode="&#xe921;" glyph-name="flash-filled" d="M389.637 32c-5.361-0.004-10.659 1.165-15.52 3.426s-9.168 5.559-12.618 9.664c-3.45 4.105-5.96 8.913-7.352 14.093-1.393 5.175-1.635 10.594-0.709 15.876v0.222l56.22 308.719h-217.66c-6.042 0-11.959 1.711-17.070 4.937-5.11 3.221-9.203 7.825-11.805 13.278s-3.609 11.529-2.902 17.532c0.707 5.999 3.098 11.674 6.897 16.375l438.341 541.878c4.988 6.333 11.917 10.858 19.721 12.883s16.055 1.437 23.497-1.672c7.437-3.109 13.653-8.57 17.698-15.546 4.041-6.976 5.687-15.084 4.685-23.085 0-0.6-0.162-1.18-0.26-1.78l-56.418-308.8h217.617c6.042 0 11.959-1.711 17.071-4.935 5.107-3.223 9.203-7.827 11.806-13.28s3.61-11.53 2.901-17.53c-0.708-6-3.098-11.679-6.899-16.377l-438.398-541.879c-3.445-4.352-7.827-7.872-12.82-10.295s-10.469-3.691-16.020-3.703z" />
<glyph unicode="&#xe922;" glyph-name="flash-outline" d="M389.547 21.333c-4.267 0-8.96 0.853-12.8 2.987-3.413 1.707-8.107 5.12-10.667 8.533-2.133 2.56-4.693 7.68-5.547 11.093-1.28 5.12-1.28 9.387-0.427 13.653l57.6 316.16h-225.28c-9.813 0-18.773 5.547-23.040 14.507s-2.987 19.627 3.413 27.307l437.76 541.44c2.56 2.987 6.827 6.4 10.24 8.107 6.827 3.413 19.627 3.413 26.453 0 3.413-1.707 7.68-4.693 10.24-7.68s5.12-7.68 5.973-10.667c1.28-3.413 1.707-9.387 1.28-12.8l-58.027-317.867h225.28c9.813 0 18.773-5.547 23.040-14.507s2.987-19.627-2.987-27.307l-438.613-542.293c-2.56-3.413-7.68-7.253-11.093-8.96-3.413-1.28-8.96-2.56-12.373-2.56zM373.76 65.707s-0.853-0.853-0.853-1.28l0.853 1.28zM245.76 424.533h202.24c7.68 0 14.933-3.413 19.627-8.96 4.693-5.973 6.827-13.653 5.547-20.907l-48.213-266.24 353.707 436.907h-202.24c-7.68 0-14.933 3.413-19.627 9.387s-6.827 13.653-5.547 20.907l48.64 266.24-354.133-437.333zM630.613 941.227v0 0z" />
<glyph unicode="&#xe923;" glyph-name="focus" d="M512 184.747c-180.48 0-327.253 146.773-327.253 327.253s146.773 327.253 327.253 327.253 327.253-146.773 327.253-327.253-146.773-327.253-327.253-327.253zM512 788.053c-152.32 0-276.053-123.733-276.053-276.053s123.733-276.053 276.053-276.053 276.053 123.733 276.053 276.053-123.733 276.053-276.053 276.053zM512 358.4c-84.48 0-153.6 68.693-153.6 153.6s69.12 153.6 153.6 153.6 153.6-69.12 153.6-153.6-68.693-153.6-153.6-153.6zM512 614.4c-56.32 0-102.4-46.080-102.4-102.4s46.080-102.4 102.4-102.4 102.4 46.080 102.4 102.4-46.080 102.4-102.4 102.4zM512 50.773c-14.080 0-25.6 11.52-25.6 25.6v200.96c0 14.080 11.52 25.6 25.6 25.6s25.6-11.52 25.6-25.6v-200.96c0-14.080-11.52-25.6-25.6-25.6zM947.627 486.4h-200.96c-14.080 0-25.6 11.52-25.6 25.6s11.52 25.6 25.6 25.6h200.96c14.080 0 25.6-11.52 25.6-25.6s-11.52-25.6-25.6-25.6zM277.333 486.4h-200.96c-14.080 0-25.6 11.52-25.6 25.6s11.52 25.6 25.6 25.6h200.96c14.080 0 25.6-11.52 25.6-25.6s-11.52-25.6-25.6-25.6zM512 721.067c-14.080 0-25.6 11.52-25.6 25.6v200.96c0 14.080 11.52 25.6 25.6 25.6s25.6-11.52 25.6-25.6v-200.96c0-14.080-11.52-25.6-25.6-25.6z" />
<glyph unicode="&#xe924;" glyph-name="follow" d="M356.693 426.667c-42.667 0-85.76 16.213-118.187 49.067-31.573 31.573-49.067 73.813-49.067 118.187s17.493 86.613 49.067 118.187c31.147 31.573 73.387 49.067 117.76 49.067v0c44.8 0 87.040-17.493 118.613-49.067s49.067-73.813 49.067-118.187-17.493-86.613-49.067-118.187v0c-32.427-32.853-75.52-49.067-118.187-49.067zM356.693 710.4v0c-31.147 0-60.16-11.947-81.92-34.133-22.187-22.187-34.133-51.2-34.133-82.347s11.947-60.16 34.133-82.347c45.227-45.227 119.040-45.227 164.267 0v0c22.187 22.187 34.133 51.2 34.133 82.347s-11.947 60.16-34.133 82.347c-22.187 22.187-51.2 34.133-82.347 34.133zM654.507 118.187c-14.080 0-25.6 11.52-25.6 25.6 0 150.187-122.027 272.213-272.213 272.213s-272.213-122.027-272.213-272.213c0-14.080-11.52-25.6-25.6-25.6s-25.6 11.52-25.6 25.6c0 178.347 145.067 323.413 323.413 323.413s323.413-145.067 323.413-323.413c0-14.080-11.52-25.6-25.6-25.6zM682.667 570.88c-81.067 0-152.747 58.88-165.547 141.227-14.080 90.88 48.64 177.067 139.52 191.573 90.88 14.080 177.067-48.213 191.573-139.52 14.080-90.88-48.64-177.067-139.52-191.573v0c-8.533-1.28-17.067-2.133-25.6-2.133zM682.24 854.187c-5.973 0-11.947-0.427-17.92-1.28-63.147-10.24-106.667-69.547-96.853-133.12 10.24-63.147 69.547-106.667 132.693-96.853 63.147 10.24 106.667 69.973 96.853 133.12-8.96 57.173-58.88 98.133-115.2 98.133zM965.12 354.987c-10.667 0-20.907 6.827-24.32 17.493-37.12 111.787-140.8 187.307-258.987 187.307 0 0-48.213-0.427-98.133-23.467-12.8-5.973-28.16 0-34.133 12.8s0 28.16 12.8 34.133c60.16 27.733 116.907 27.733 119.467 27.733 139.947 0 263.68-89.173 307.627-222.293 4.267-13.227-2.987-27.733-16.213-32.427-2.56-0.853-5.12-1.28-8.107-1.28z" />
<glyph unicode="&#xe925;" glyph-name="global" d="M512 42.667c-249.173 0-452.267 202.667-452.267 452.267s203.093 452.267 452.267 452.267 452.267-203.093 452.267-452.267-202.667-452.267-452.267-452.267zM512 896c-221.013 0-401.067-179.627-401.067-401.067s180.053-401.067 401.067-401.067 401.067 180.053 401.067 401.067-180.053 401.067-401.067 401.067zM938.667 469.333h-853.333c-14.080 0-25.6 11.52-25.6 25.6s11.52 25.6 25.6 25.6h853.333c14.080 0 25.6-11.52 25.6-25.6s-11.52-25.6-25.6-25.6zM512 42.667c-7.253 0-14.080 2.987-18.773 8.533-110.933 121.6-174.080 279.040-177.493 443.307 3.413 165.547 66.56 322.987 177.493 444.587 4.693 5.12 11.52 8.533 18.773 8.533v0c7.253 0 14.080-2.987 18.773-8.533 110.933-121.6 174.080-279.040 177.493-443.307-3.413-165.547-66.56-322.987-177.493-444.587-4.693-5.12-11.52-8.533-18.773-8.533zM512 882.773c-90.88-109.227-142.080-245.76-145.067-388.267 2.987-141.653 54.187-278.187 145.067-387.413 90.88 109.227 142.080 245.76 145.067 388.267-2.987 141.227-54.187 278.187-145.067 386.987z" />
<glyph unicode="&#xe926;" glyph-name="home" d="M785.92 78.507h-547.84c-27.733 0-53.76 10.667-73.387 30.293s-30.293 45.653-30.293 73.387v430.080c0 8.107 3.84 15.36 9.813 20.053l352 273.92c9.387 7.253 22.187 7.253 31.573 0l352-273.92c6.4-4.693 9.813-12.373 9.813-20.053v-430.080c0-27.733-10.667-53.76-30.293-73.387s-45.653-30.293-73.387-30.293zM185.6 599.893v-417.707c0-14.080 5.547-27.307 15.36-37.12s23.040-15.36 37.12-15.36h547.413c14.080 0 27.307 5.547 37.12 15.36s15.36 23.040 15.36 37.12v417.707l-326.4 253.867-326.4-253.867zM629.333 78.507c-14.080 0-25.6 11.52-25.6 25.6v365.653h-183.467v-365.653c0-14.080-11.52-25.6-25.6-25.6s-25.6 11.52-25.6 25.6v391.253c0 14.080 11.52 25.6 25.6 25.6h234.667c14.080 0 25.6-11.52 25.6-25.6v-391.253c0-14.080-11.52-25.6-25.6-25.6z" />
<glyph unicode="&#xe927;" glyph-name="ig" d="M512 704c-37.973 0-75.093-11.261-106.67-32.358-31.574-21.097-56.183-51.084-70.715-86.166-14.532-35.085-18.334-73.69-10.926-110.933s25.694-71.454 52.546-98.308c26.852-26.85 61.064-45.137 98.307-52.544 37.244-7.411 75.849-3.61 110.933 10.923 35.081 14.532 65.067 39.142 86.165 70.716 21.099 31.578 32.358 68.698 32.358 106.671-0.051 50.906-20.297 99.711-56.294 135.706-35.994 35.995-84.8 56.241-135.706 56.294zM512 384c-25.314 0-50.065 7.505-71.113 21.572-21.050 14.063-37.456 34.057-47.144 57.442-9.688 23.39-12.223 49.126-7.284 73.958 4.939 24.828 17.13 47.637 35.031 65.537 17.9 17.901 40.709 30.092 65.537 35.031 24.832 4.939 50.569 2.404 73.958-7.284 23.386-9.688 43.379-26.094 57.442-47.144 14.067-21.047 21.572-45.798 21.572-71.113 0-33.946-13.487-66.505-37.491-90.509s-56.563-37.491-90.509-37.491zM704 928h-384c-59.389-0.064-116.327-23.684-158.322-65.678s-65.615-98.933-65.678-158.322v-384c0.064-59.388 23.684-116.326 65.678-158.323 41.995-41.993 98.933-65.613 158.322-65.677h384c59.388 0.064 116.326 23.684 158.323 65.677 41.993 41.997 65.613 98.935 65.677 158.323v384c-0.064 59.389-23.684 116.327-65.677 158.322-41.997 41.994-98.935 65.615-158.323 65.678zM864 320c0-42.436-16.858-83.132-46.865-113.135-30.003-30.007-70.699-46.865-113.135-46.865h-384c-42.435 0-83.131 16.858-113.137 46.865-30.006 30.003-46.863 70.699-46.863 113.135v384c0 42.435 16.857 83.131 46.863 113.137s70.703 46.863 113.137 46.863h384c42.436 0 83.132-16.857 113.135-46.863 30.007-30.006 46.865-70.703 46.865-113.137v-384zM768 720c0-9.493-2.816-18.774-8.090-26.668s-12.77-14.046-21.542-17.679c-8.768-3.633-18.419-4.584-27.733-2.732-9.31 1.852-17.865 6.423-24.576 13.136s-11.285 15.266-13.137 24.577c-1.852 9.311-0.9 18.962 2.731 27.733 3.635 8.771 9.788 16.268 17.681 21.542s17.173 8.090 26.667 8.090c12.732 0 24.939-5.057 33.941-14.059s14.059-21.211 14.059-33.941z" />
<glyph unicode="&#xe928;" glyph-name="image-filled" d="M563.2 334.933s-2.987 1.707-4.267 2.56-1.707 2.56-2.56 3.84l-188.16 186.88-230.827-238.507c-2.56-2.987-5.973-4.693-9.387-6.4v-59.733c0-17.493 14.507-32 32-32h547.413l-144.213 142.933zM314.88 596.48c7.68 7.68 15.787 12.8 24.747 16.64 17.92 7.253 38.827 7.68 57.173 0 8.96-3.84 17.067-9.387 24.32-16.213l168.96-167.68 72.107 72.107c28.16 28.16 77.653 28.16 105.813 0l128.427-122.88v421.547c0 17.493-14.507 32-32 32h-704.427c-17.493 0-32-14.507-32-32v-396.8l186.88 192.853zM669.44 725.333c35.413 0 64-28.587 64-64s-28.587-64-64-64-64 28.587-64 64 28.587 64 64 64zM887.893 267.947l-173.227 165.12-64.427-64.427 168.96-167.68c2.56-2.56 4.267-5.973 5.973-8.96h38.4c17.493 0 32 14.507 32 32v38.4c-2.56 1.707-5.547 2.987-8.107 5.12z" />
<glyph unicode="&#xe929;" glyph-name="image-outlined" d="M864 856h-704c-14.847-0.017-29.081-5.923-39.579-16.421s-16.404-24.733-16.421-39.579v-576c0.017-14.848 5.923-29.082 16.421-39.578 10.499-10.5 24.733-16.405 39.579-16.422h704c14.848 0.017 29.082 5.922 39.578 16.422 10.5 10.496 16.405 24.73 16.422 39.578v576c-0.017 14.847-5.922 29.081-16.422 39.579-10.496 10.498-24.73 16.404-39.578 16.421zM160 808h704c2.121-0.002 4.156-0.846 5.653-2.345 1.502-1.5 2.347-3.534 2.347-5.655v-454.059l-128.401 128.397c-10.509 10.487-24.751 16.375-39.595 16.375-14.848 0-29.086-5.888-39.595-16.375l-82.748-82.739c-1.502-1.498-3.541-2.342-5.662-2.342s-4.16 0.845-5.662 2.342l-178.738 178.743c-10.51 10.487-24.749 16.375-39.594 16.375s-29.085-5.888-39.594-16.375l-160.412-160.405v390.063c0.002 2.121 0.846 4.155 2.345 5.655s3.534 2.343 5.655 2.345zM864 216h-704c-2.121 0.004-4.154 0.849-5.653 2.347s-2.344 3.533-2.347 5.653v118.059l194.344 194.342c1.501 1.498 3.536 2.342 5.658 2.342s4.157-0.845 5.658-2.342l178.749-178.743c10.509-10.487 24.747-16.375 39.59-16.375 14.848 0 29.086 5.888 39.595 16.375l82.748 82.743c1.502 1.498 3.537 2.338 5.658 2.338 2.125 0 4.16-0.841 5.662-2.338l162.338-162.338v-54.063c-0.004-2.121-0.849-4.156-2.347-5.653s-3.533-2.342-5.653-2.347zM595.716 595.716c-4.651 4.652-8.081 10.379-9.993 16.673-1.907 6.295-2.236 12.963-0.951 19.415s4.139 12.486 8.311 17.571c4.177 5.084 9.54 9.061 15.616 11.578s12.681 3.496 19.226 2.851c6.549-0.645 12.834-2.895 18.304-6.549s9.95-8.602 13.052-14.403c3.102-5.801 4.723-12.278 4.723-18.855v-0.008c0-7.911-2.351-15.644-6.746-22.221s-10.645-11.704-17.954-14.729-15.351-3.814-23.108-2.27c-7.761 1.545-14.886 5.355-20.48 10.948z" />
<glyph unicode="&#xe92a;" glyph-name="info" d="M511.996 853.461c-197.939 0-358.4-160.461-358.4-358.4s160.461-358.4 358.4-358.4c197.939 0 358.4 160.461 358.4 358.4s-160.461 358.4-358.4 358.4zM102.396 495.061c0 226.216 183.384 409.6 409.6 409.6 226.214 0 409.6-183.384 409.6-409.6 0-226.214-183.386-409.6-409.6-409.6-226.216 0-409.6 183.386-409.6 409.6zM486.396 665.728c0 14.138 11.46 25.6 25.6 25.6h0.427c14.14 0 25.6-11.462 25.6-25.6v-0.427c0-14.138-11.46-25.6-25.6-25.6h-0.427c-14.14 0-25.6 11.462-25.6 25.6v0.427zM511.996 520.661c14.14 0 25.6-11.46 25.6-25.6v-170.667c0-14.14-11.46-25.6-25.6-25.6s-25.6 11.46-25.6 25.6v170.667c0 14.14 11.46 25.6 25.6 25.6z" />
<glyph unicode="&#xe92b;" glyph-name="leaderboard" d="M682.667 43.093h-341.333v849.493c0 46.933 38.4 85.333 85.333 85.333h170.667c46.933 0 85.333-38.4 85.333-85.333v-849.493zM392.533 94.293h238.933v798.293c0 18.773-15.36 34.133-34.133 34.133h-170.667c-18.773 0-34.133-15.36-34.133-34.133v-798.293zM393.387 43.093h-341.333v590.507c0 46.933 38.4 85.333 85.333 85.333h170.667c46.933 0 85.333-38.4 85.333-85.333v-590.507zM103.253 94.293h238.933v539.307c0 18.773-15.36 34.133-34.133 34.133h-170.667c-18.773 0-34.133-15.36-34.133-34.133v-539.307zM972.8 43.093h-341.333v421.547c0 46.933 38.4 85.333 85.333 85.333h170.667c46.933 0 85.333-38.4 85.333-85.333v-421.547zM682.667 94.293h238.933v370.347c0 18.773-15.36 34.133-34.133 34.133h-170.667c-18.773 0-34.133-15.36-34.133-34.133v-370.347zM510.72 739.84v76.373l-19.2-19.2-16.64 17.493 39.68 39.253h25.6v-113.92h-29.44zM753.493 340.053l14.933 19.2c8.107-8.107 21.333-12.373 31.147-12.373 12.8 0 19.2 5.12 19.2 11.947s-4.693 10.24-20.48 10.24c-5.12 0-13.653 0-15.36 0v25.173c2.133 0 11.093 0 15.36 0 11.947 0 18.347 3.413 18.347 9.813 0 7.253-8.107 11.093-19.2 11.093s-20.48-4.267-28.587-11.093l-13.653 17.92c9.387 10.667 24.747 18.347 45.653 18.347 29.013 0 45.227-12.373 45.227-31.147 0-13.227-11.52-23.467-24.747-25.6 11.947-1.28 26.88-10.667 26.88-26.88 0-20.053-18.773-33.707-46.933-33.707-21.76 0-38.4 7.68-46.933 17.92zM178.347 491.947v23.040c49.493 35.84 58.453 43.52 58.453 54.613 0 7.68-7.253 11.947-16.213 11.947-11.947 0-21.76-4.693-29.867-12.373l-16.213 19.627c11.947 13.227 30.293 18.773 46.080 18.773 26.88 0 46.080-14.933 46.080-37.973 0-17.493-12.373-32.427-43.093-52.053h43.947v-25.6h-89.173z" />
<glyph unicode="&#xe92c;" glyph-name="load" d="M544 896v-128c0-8.487-3.371-16.626-9.374-22.627-5.999-6.001-14.14-9.373-22.626-9.373s-16.627 3.372-22.626 9.373c-6.003 6.001-9.374 14.141-9.374 22.627v128c0 8.487 3.371 16.626 9.374 22.627 5.999 6.001 14.14 9.373 22.626 9.373s16.627-3.372 22.626-9.373c6.003-6.001 9.374-14.141 9.374-22.627zM896 544h-128c-8.486 0-16.627-3.371-22.626-9.374-6.003-5.999-9.374-14.14-9.374-22.626s3.371-16.627 9.374-22.626c5.999-6.003 14.14-9.374 22.626-9.374h128c8.486 0 16.627 3.371 22.626 9.374 6.003 5.999 9.374 14.14 9.374 22.626s-3.371 16.627-9.374 22.626c-5.999 6.003-14.14 9.374-22.626 9.374zM715.639 353.6c-6.050 5.747-14.106 8.905-22.451 8.798-8.341-0.107-16.316-3.469-22.217-9.37s-9.263-13.875-9.37-22.217c-0.107-8.346 3.051-16.401 8.798-22.451l90.479-90.522c6.007-6.003 14.148-9.378 22.643-9.378 8.491 0 16.631 3.375 22.639 9.378 6.003 6.007 9.378 14.148 9.378 22.639 0 8.495-3.375 16.636-9.378 22.643l-90.522 90.479zM512 288c-8.486 0-16.627-3.371-22.626-9.374-6.003-5.999-9.374-14.14-9.374-22.626v-128c0-8.486 3.371-16.627 9.374-22.626 5.999-6.003 14.14-9.374 22.626-9.374s16.627 3.371 22.626 9.374c6.003 5.999 9.374 14.14 9.374 22.626v128c0 8.486-3.371 16.627-9.374 22.626-5.999 6.003-14.14 9.374-22.626 9.374zM308.36 353.6l-90.52-90.479c-6.004-6.007-9.378-14.148-9.378-22.643 0-8.491 3.373-16.631 9.378-22.639 6.005-6.003 14.149-9.378 22.64-9.378s16.635 3.375 22.64 9.378l90.48 90.522c5.748 6.050 8.905 14.106 8.798 22.451-0.107 8.341-3.469 16.316-9.37 22.217s-13.873 9.263-22.218 9.37c-8.344 0.107-16.401-3.051-22.45-8.798zM288 512c0 8.486-3.372 16.627-9.373 22.626-6.001 6.003-14.141 9.374-22.627 9.374h-128c-8.487 0-16.626-3.371-22.627-9.374-6.001-5.999-9.373-14.14-9.373-22.626s3.372-16.627 9.373-22.626c6.001-6.003 14.141-9.374 22.627-9.374h128c8.487 0 16.626 3.371 22.627 9.374 6.001 5.999 9.373 14.14 9.373 22.626zM263.12 806.16c-6.004 6.004-14.148 9.378-22.64 9.378s-16.635-3.373-22.64-9.378c-6.004-6.005-9.378-14.149-9.378-22.64s3.373-16.635 9.378-22.64l90.52-90.48c6.050-5.748 14.106-8.905 22.45-8.798s16.317 3.469 22.218 9.37c5.901 5.901 9.263 13.873 9.37 22.218s-3.050 16.401-8.798 22.45l-90.48 90.52z" />
<glyph unicode="&#xe92d;" glyph-name="location" d="M511.979 960.016c-93.321-0.111-182.79-37.233-248.778-103.221s-103.11-155.457-103.221-248.779c0-301.187 320-528.69 333.623-538.222 5.389-3.763 11.806-5.781 18.377-5.781 6.575 0 12.988 2.018 18.377 5.781 13.623 9.532 333.623 237.035 333.623 538.222-0.111 93.322-37.231 182.79-103.219 248.779s-155.46 103.11-248.781 103.221zM512.004 736.003c25.314 0 50.061-7.507 71.113-21.572 21.047-14.065 37.457-34.056 47.142-57.444 9.69-23.389 12.224-49.126 7.283-73.956-4.937-24.828-17.126-47.637-35.029-65.536-17.903-17.903-40.708-30.093-65.54-35.034-24.828-4.937-50.564-2.402-73.954 7.283-23.39 9.69-43.379 26.095-57.443 47.147-14.065 21.047-21.572 45.794-21.572 71.112 0 33.948 13.486 66.505 37.49 90.51 24.006 24.004 56.561 37.49 90.511 37.49z" />
<glyph unicode="&#xe92e;" glyph-name="lock" d="M810.667 42.667h-597.333c-61.013 0-110.933 49.92-110.933 110.933v298.667c0 61.013 49.92 110.933 110.933 110.933h597.333c61.013 0 110.933-49.92 110.933-110.933v-298.667c0-61.013-49.92-110.933-110.933-110.933zM213.333 512c-32.853 0-59.733-26.88-59.733-59.733v-298.667c0-32.853 26.88-59.733 59.733-59.733h597.333c32.853 0 59.733 26.88 59.733 59.733v298.667c0 32.853-26.88 59.733-59.733 59.733h-597.333zM725.333 512c-14.080 0-25.6 11.52-25.6 25.6v170.667c0 50.347-19.627 97.28-55.040 132.693s-82.773 55.040-132.693 55.040-97.28-19.627-132.693-55.040c-35.413-35.413-55.040-82.773-55.040-132.693v-170.667c0-14.080-11.52-25.6-25.6-25.6s-25.6 11.52-25.6 25.6v170.667c0 64 24.747 123.733 69.973 168.96s104.96 69.973 168.96 69.973 123.733-24.747 168.96-69.973c45.227-45.227 69.973-104.96 69.973-168.96v-170.667c0-14.080-11.52-25.6-25.6-25.6z" />
<glyph unicode="&#xe92f;" glyph-name="log-out" d="M384 85.333h-170.667c-29.44 0-57.6 11.52-78.507 32.427s-32.427 48.64-32.427 78.507v597.333c0 29.44 11.52 57.6 32.427 78.507s48.64 32.427 78.507 32.427h170.667c14.080 0 25.6-11.52 25.6-25.6s-11.52-25.6-25.6-25.6h-170.667c-15.787 0-31.147-6.4-42.24-17.493s-17.493-26.453-17.493-42.24v-597.333c0-15.787 6.4-31.147 17.493-42.24s26.453-17.493 42.24-17.493h170.667c14.080 0 25.6-11.52 25.6-25.6s-11.52-25.6-25.6-25.6zM682.667 256c-6.4 0-13.227 2.56-17.92 7.68-9.813 9.813-9.813 26.027 0 36.267l195.413 195.413-195.413 195.413c-9.813 9.813-9.813 26.027 0 36.267s26.027 9.813 36.267 0l213.333-213.333c9.813-9.813 9.813-26.027 0-36.267l-213.333-213.333c-5.12-5.12-11.52-7.68-17.92-7.68zM896 469.333h-512c-14.080 0-25.6 11.52-25.6 25.6s11.52 25.6 25.6 25.6h512c14.080 0 25.6-11.52 25.6-25.6s-11.52-25.6-25.6-25.6z" />
<glyph unicode="&#xe930;" glyph-name="map" d="M654.080 130.987c-3.84 0-7.68 0.853-11.52 2.56l-272.213 136.107-236.8-135.253c-8.107-4.693-17.493-4.693-25.6 0s-12.8 12.8-12.8 22.187v568.747c0 9.387 5.12 17.493 12.8 22.187l248.747 142.080c7.253 4.267 16.64 4.693 24.32 0.853l272.213-136.107 236.8 135.253c8.107 4.693 17.92 4.267 25.6 0 8.107-4.693 12.8-13.227 12.8-22.187v-568.747c0-8.96-5.12-17.493-12.8-22.187l-248.747-142.080c-3.84-2.133-8.533-3.413-12.8-3.413zM369.92 324.267c3.84 0 7.68-0.853 11.52-2.56l272.213-136.107 224 128v509.867l-210.773-120.32c-7.253-4.267-16.64-4.693-24.32-0.853l-272.213 136.107-224-128v-509.867l210.773 120.32c3.84 2.133 8.107 3.413 12.8 3.413zM369.92 273.067c-14.080 0-25.6 11.52-25.6 25.6v568.747c0 14.080 11.52 25.6 25.6 25.6s25.6-11.52 25.6-25.6v-568.747c0-14.080-11.52-25.6-25.6-25.6zM654.080 130.987c-14.080 0-25.6 11.52-25.6 25.6v568.747c0 14.080 11.52 25.6 25.6 25.6s25.6-11.52 25.6-25.6v-568.747c0-14.080-11.52-25.6-25.6-25.6z" />
<glyph unicode="&#xe931;" glyph-name="marathon" d="M477.862 678.959c18.172-0.68 47.74-3.595 61.542-16.792 20.143-19.256 24.862-46.288 12.791-72.334-24.585-53.018-72.311-99.345-93.875-141.623-8.614-16.832-3.686-26.705 6.959-37.124 11.456-11.23 22.912-22.562 34.125-33.792 35.891-0.866 77.406-2.325 82.748-1.711 26.615 3.089 62.528 63.518 68.877 73.212 1.907 2.957 3.823 5.914 5.79 8.998l56.375-55.791c-5.355-5.982-10.705-11.913-16-17.835l-1.498-1.668c-18.244-20.314-35.55-39.599-54.084-58.291-1.975-1.971-6.434-3.55-11.541-4.164-3.196-0.367-6.464-0.367-9.169 0.124-26.24 4.506-52.757 9.353-78.874 14.165 11.883-12.092 23.369-23.808 34.206-34.914 6.276-6.473 9.967-12.105 10.961-16.794 8.93-43.465 27.529-138.325 32.043-161.331l0.666-3.418-21.5-4.71c-7.518 18.948-17.655 43.981-25.293 61.751-7.701 17.958-15.671 36.548-23.002 55.002-7.39 18.56-18.722 32.201-35.708 42.748-49.161 30.677-97.379 62.315-142.165 91.874-14.705 9.685-23.474 21.282-26 34.419-2.46 12.774 0.989 26.688 10.167 41.374l2.708 4.002c5.352-6.596 10.991-9.203 13.583-9.212 6.022 0.009 9.292 3.712 13.041 7.962l3.625 4.164-8.375 12.958c-13.549 20.425-27.245 40.742-40.917 61.043-12.686 18.816-25.354 37.662-37.917 56.542-6.895 10.423-9.5 17.54-8.083 22.416 1.885 5.143 157.488 79.774 183.792 78.75zM378.57 321.835c-5.357-5.986-10.705-11.913-16-17.835-18.789-20.919-36.549-40.721-55.584-59.917-1.969-1.971-6.395-3.588-11.5-4.207-3.204-0.371-6.498-0.371-9.208 0.124-37.456 6.417-75.472 13.525-112.25 20.373-25.196 4.693-50.345 9.37-75.542 13.875-13.912 2.534-14.040 9.084-12.5 23.458 12.997-0.124 25.875-0.060 38.625 0 33.331 0.188 115.235-3.196 122.875-2.33l0.042 0.038c26.611 3.085 62.52 63.501 68.875 73.207 1.907 2.961 3.823 5.922 5.792 9.003l56.375-55.791zM812.446 765.375c18.163-0.679 47.731-3.602 61.542-16.792 20.139-19.253 24.896-46.291 12.83-72.333-24.58-53.020-72.35-99.345-93.914-141.624-8.61-16.836-3.648-26.701 6.997-37.124 39.245-38.327 77.879-77.743 110.959-111.629 6.272-6.468 9.971-12.105 10.961-16.789 4.617-22.588 10.846-53.577 16.205-80.666l-0.081-0.043-30.293-26.999c-7.637 17.954-15.586 36.489-22.916 54.874-7.394 18.573-18.748 32.179-35.75 42.79-49.156 30.673-97.34 62.272-142.123 91.836-14.72 9.69-23.475 21.312-26.001 34.458-2.458 12.77 0.994 26.654 10.167 41.335l2.709 4.041c5.346-6.588 10.944-9.199 13.538-9.207 6.037 0 9.327 3.699 13.086 7.957l3.622 4.126-8.375 12.958c-13.547 20.42-27.243 40.742-40.913 61.040l-37.961 56.625c-6.878 10.403-9.485 17.503-8.081 22.375 1.527 4.985 157.431 79.799 183.791 78.792zM415.945 600.666l-57.208-12.208c-3.991-0.87-7.386-3.409-9.292-7.040-1.842-3.639-2.033-7.91-0.5-11.669l32.375-77.875 45.208 95.415 0.042-0.081c1.415 2.961 1.18 6.43-0.542 9.207-1.788 2.771-4.823 4.459-8.083 4.459-0.664-0.002-1.336-0.088-2-0.209zM750.528 686.959l-57.165-12.209c-4.002-0.866-7.386-3.404-9.293-7.042-1.847-3.637-2.035-7.904-0.499-11.666l32.333-77.874 45.21 95.416 0.081-0.083c1.412 2.958 1.178 6.433-0.542 9.208-1.788 2.77-4.821 4.458-8.081 4.458-0.674-0.001-1.37-0.086-2.044-0.208zM568.363 805.708c28.036 0 50.79-22.786 50.79-50.875s-22.754-50.875-50.79-50.875c-28.028 0.011-50.752 22.792-50.752 50.875s22.724 50.864 50.752 50.875zM887.902 896c28.032-0.003 50.752-22.793 50.752-50.875-0.009-28.078-22.724-50.831-50.752-50.833-28.028 0-50.786 22.754-50.79 50.833 0 28.084 22.758 50.875 50.79 50.875z" />
<glyph unicode="&#xe932;" glyph-name="menu" d="M888 512c0-6.366-2.53-12.471-7.031-16.969-4.497-4.501-10.603-7.031-16.969-7.031h-704c-6.365 0-12.47 2.53-16.971 7.031-4.501 4.497-7.029 10.603-7.029 16.969s2.528 12.471 7.029 16.969c4.501 4.501 10.606 7.031 16.971 7.031h704c6.366 0 12.471-2.53 16.969-7.031 4.501-4.497 7.031-10.603 7.031-16.969zM160 744h704c6.366 0 12.471 2.528 16.969 7.029 4.501 4.501 7.031 10.606 7.031 16.971s-2.53 12.47-7.031 16.971c-4.497 4.501-10.603 7.029-16.969 7.029h-704c-6.365 0-12.47-2.528-16.971-7.029s-7.029-10.606-7.029-16.971c0-6.365 2.528-12.47 7.029-16.971s10.606-7.029 16.971-7.029zM864 280h-704c-6.365 0-12.47-2.53-16.971-7.031-4.501-4.497-7.029-10.603-7.029-16.969s2.528-12.471 7.029-16.969c4.501-4.501 10.606-7.031 16.971-7.031h704c6.366 0 12.471 2.53 16.969 7.031 4.501 4.497 7.031 10.603 7.031 16.969s-2.53 12.471-7.031 16.969c-4.497 4.501-10.603 7.031-16.969 7.031z" />
<glyph unicode="&#xe933;" glyph-name="minus" d="M810.667 486.4h-597.333c-14.080 0-25.6 11.52-25.6 25.6s11.52 25.6 25.6 25.6h597.333c14.080 0 25.6-11.52 25.6-25.6s-11.52-25.6-25.6-25.6z" />
<glyph unicode="&#xe934;" glyph-name="minus-circle" d="M682.667 486.4h-341.333c-14.080 0-25.6 11.52-25.6 25.6s11.52 25.6 25.6 25.6h341.333c14.080 0 25.6-11.52 25.6-25.6s-11.52-25.6-25.6-25.6zM512 128c-211.627 0-384 172.373-384 384s172.373 384 384 384 384-172.373 384-384-172.373-384-384-384zM512 844.8c-183.467 0-332.8-149.333-332.8-332.8s149.333-332.8 332.8-332.8 332.8 149.333 332.8 332.8-149.333 332.8-332.8 332.8z" />
<glyph unicode="&#xe935;" glyph-name="navigation" d="M546.987 81.92s-1.707 0-2.56 0c-10.667 0.853-19.627 8.96-22.187 19.2l-81.493 326.4-326.4 81.493c-10.667 2.56-18.347 11.52-19.2 22.187s4.693 20.907 14.507 25.6l810.24 384.427c9.813 4.693 21.333 2.56 29.013-5.12s9.813-19.2 5.12-29.013l-384-810.667c-4.267-8.96-13.227-14.507-23.040-14.507zM195.84 541.44l271.787-67.84c8.96-2.133 16.213-9.387 18.773-18.773l67.84-271.787 322.56 681.387-681.387-322.56z" />
<glyph unicode="&#xe936;" glyph-name="notification-normal" d="M876.339 316.22c-24.239 41.719-53.12 120.649-53.12 259.78v28.384c0 172.76-138.547 314.34-308.847 315.608l-2.377 0.008c-82.641-0.11-161.851-33.043-220.209-91.554s-91.083-137.807-90.977-220.446v-32c0-139.127-28.9-218.052-53.152-259.767-4.963-8.503-7.598-18.163-7.637-28.011-0.039-9.843 2.517-19.524 7.412-28.066s11.956-15.642 20.47-20.587c8.514-4.941 18.181-7.552 28.026-7.569h164.068v-8c0-40.311 16.014-78.976 44.52-107.482s67.166-44.518 107.482-44.518c40.311 0 78.972 16.013 107.477 44.518s44.523 67.17 44.523 107.482v8h164.066c9.843 0.013 19.511 2.624 28.023 7.565 8.516 4.945 15.578 12.045 20.471 20.582 4.894 8.542 7.454 18.223 7.411 28.066-0.038 9.843-2.671 19.503-7.633 28.006zM616 224c0-27.584-10.961-54.037-30.464-73.54s-45.956-30.46-73.536-30.46c-27.584 0-54.037 10.957-73.54 30.46-19.505 19.503-30.461 45.956-30.461 73.54v8h208.002v-8zM834.876 283.942c-0.67-1.216-1.655-2.223-2.854-2.918-1.203-0.695-2.569-1.050-3.955-1.024h-632.136c-1.387-0.026-2.755 0.329-3.955 1.024s-2.188 1.702-2.857 2.918c-0.74 1.237-1.127 2.65-1.12 4.092 0.007 1.438 0.408 2.85 1.16 4.079 27.212 46.81 59.652 134.067 59.652 283.887v32c-0.106 69.911 27.564 137 76.922 186.509s116.363 77.384 186.272 77.491l2.010-0.008c144.030-1.072 261.201-121.12 261.201-267.608v-28.384c0-149.82 32.422-237.077 59.622-283.891 0.751-1.229 1.152-2.637 1.156-4.075 0.009-1.438-0.38-2.85-1.118-4.087v-0.004z" />
<glyph unicode="&#xe937;" glyph-name="phone-call-light" d="M614.481 870.195c1.647 6.147 5.666 11.389 11.174 14.575 5.513 3.186 12.058 4.055 18.21 2.417 58.321-15.683 111.497-46.417 154.202-89.121 42.701-42.705 73.434-95.881 89.118-154.203 0.832-3.052 1.054-6.237 0.653-9.375s-1.417-6.165-2.995-8.908c-1.574-2.743-3.678-5.147-6.182-7.075-2.509-1.928-5.376-3.34-8.431-4.157s-6.242-1.021-9.378-0.602c-3.136 0.419-6.157 1.455-8.892 3.046s-5.124 3.707-7.040 6.227c-1.911 2.519-3.307 5.392-4.109 8.452-13.491 50.176-39.932 95.926-76.672 132.666s-82.492 63.181-132.668 76.674c-3.042 0.813-5.901 2.219-8.401 4.136s-4.604 4.308-6.178 7.037c-1.579 2.729-2.603 5.742-3.017 8.866s-0.209 6.301 0.606 9.346zM598.336 717.143c28.476-7.656 54.443-22.662 75.294-43.514s35.857-46.817 43.516-75.294c1.643-6.151 5.662-11.395 11.17-14.582 5.513-3.187 12.062-4.053 18.21-2.411 6.153 1.643 11.396 5.662 14.583 11.174 3.187 5.51 4.053 12.061 2.411 18.21-9.847 36.623-29.146 70.015-55.962 96.831s-60.207 46.114-96.832 55.962c-3.042 0.814-6.221 1.019-9.344 0.606s-6.135-1.439-8.866-3.017c-5.508-3.186-9.527-8.432-11.174-14.581-1.643-6.15-0.772-12.701 2.411-18.211 3.187-5.51 8.435-9.53 14.583-11.173zM918.289 324.681c-6.703-52.113-32.149-100.002-71.586-134.724-39.433-34.726-90.159-53.905-142.703-53.956-313.196 0-568 254.801-568 567.999 0.053 52.542 19.232 103.268 53.955 142.703s82.612 64.881 134.726 71.585c12.031 1.448 24.207-1.037 34.708-7.084s18.762-15.331 23.548-26.464l80.364-187.512c3.648-8.486 5.137-17.745 4.331-26.947s-3.878-18.061-8.947-25.785l-66.544-101.676c-0.752-1.092-1.209-2.364-1.326-3.686s0.11-2.654 0.658-3.861c30.878-62.989 81.949-113.83 145.079-144.422 1.216-0.546 2.556-0.764 3.878-0.636 1.327 0.128 2.598 0.597 3.686 1.361l100.139 66.778c7.748 5.184 16.666 8.346 25.946 9.199 9.284 0.853 18.628-0.631 27.187-4.318l187.349-80.299c11.132-4.783 20.42-13.043 26.466-23.543 6.050-10.5 8.533-22.677 7.087-34.709zM870.665 330.697c0.179 1.698-0.196 3.405-1.071 4.868-0.87 1.463-2.193 2.603-3.772 3.255l-187.341 80.29c-1.225 0.525-2.56 0.734-3.887 0.614-1.323-0.124-2.598-0.572-3.708-1.31l-100.139-66.782c-8.043-5.38-17.348-8.58-26.999-9.284-9.655-0.704-19.324 1.114-28.066 5.269-72.815 35.29-131.725 93.931-167.342 166.588-4.176 8.687-6.035 18.308-5.397 27.925 0.638 9.621 3.751 18.91 9.037 26.97l66.54 101.682c0.725 1.104 1.165 2.371 1.28 3.687s-0.098 2.64-0.62 3.853l-80.36 187.504c-0.596 1.428-1.596 2.652-2.877 3.522s-2.787 1.347-4.335 1.374c-0.303-0.001-0.607-0.021-0.908-0.060-40.525-5.219-77.765-25.012-104.762-55.683s-41.905-70.121-41.938-110.981c0.156-137.863 54.991-270.040 152.476-367.525 97.487-97.485 229.659-152.32 367.524-152.474 40.862 0.034 80.311 14.942 110.98 41.937 30.673 26.995 50.466 64.235 55.684 104.759z" />
<glyph unicode="&#xe938;" glyph-name="play" d="M320 102.4c-9.82 0-19.2 2.56-27.74 7.26-8.96 4.7-16.22 11.94-21.76 20.9-5.12 8.54-8.1 18.34-8.1 28.58v705.28c0 10.66 2.98 20.48 8.1 29.020s12.8 15.78 21.34 20.48c8.96 4.7 19.62 7.68 29.020 7.26 10.24 0 20.060-2.98 28.58-8.1l576.42-352.42c8.1-5.12 15.36-12.38 20.060-20.9s7.26-17.92 7.26-27.74-2.56-19.62-7.26-28.16c-4.7-8.54-11.52-15.78-20.060-20.48l-576-352.42c-8.54-5.12-18.78-8.1-28.58-8.54h-1.28zM314.84 866.28v0c-0.8-1.2-1.24-2.62-1.24-4.080v-702.62l3.42-5.12h6.4l576.42 352.42 2.98 5.12s-2.98 4.7-2.98 5.12l-574.66 351.36c-1.16 0.7-2.48 1.080-3.84 1.080h-0.4c-2.46 0-4.74-1.22-6.1-3.28z" />
<glyph unicode="&#xe939;" glyph-name="pop" d="M256 230.4c-6.4 0-13.227 2.56-17.92 7.68-9.813 9.813-9.813 26.027 0 36.267l512 512c9.813 9.813 26.027 9.813 36.267 0s9.813-26.027 0-36.267l-512-512c-5.12-5.12-11.52-7.68-17.92-7.68zM768 326.4c-14.080 0-25.6 11.52-25.6 25.6v390.4h-390.4c-14.080 0-25.6 11.52-25.6 25.6s11.52 25.6 25.6 25.6h416c14.080 0 25.6-11.52 25.6-25.6v-416c0-14.080-11.52-25.6-25.6-25.6z" />
<glyph unicode="&#xe93a;" glyph-name="qr-code" d="M853.333 145.067h-42.667c-14.080 0-25.6 11.52-25.6 25.6s11.52 25.6 25.6 25.6h42.667c14.080 0 25.6-11.52 25.6-25.6s-11.52-25.6-25.6-25.6zM682.667 145.067h-85.333c-14.080 0-25.6 11.52-25.6 25.6v128c0 14.080 11.52 25.6 25.6 25.6s25.6-11.52 25.6-25.6v-102.4h59.733c14.080 0 25.6-11.52 25.6-25.6s-11.52-25.6-25.6-25.6zM298.667 145.067c-43.093 0-64.853 0-85.333 8.533-13.653 5.547-25.6 13.653-35.84 23.893-10.24 10.667-18.347 22.613-23.893 35.84-8.533 20.48-8.533 41.813-8.533 85.333s0 64.853 8.533 85.333c11.52 27.307 32.853 48.64 60.16 60.16 20.48 8.533 42.24 8.533 85.333 8.533s64.853 0 85.333-8.533c27.307-11.52 48.64-32.853 60.16-60.16 8.533-20.48 8.533-41.813 8.533-85.333s0-64.853-8.533-84.907c-5.547-13.653-13.653-25.6-23.893-35.84s-22.613-18.347-35.84-23.893c-20.48-8.533-42.24-8.533-85.333-8.533zM298.667 401.067c-34.987 0-54.613 0-65.707-4.693-14.933-5.973-26.027-17.493-32.427-32.427-4.693-11.093-4.693-30.293-4.693-65.707s0-54.613 4.693-65.707c2.987-7.253 7.253-13.653 12.8-19.627 5.547-5.547 11.947-9.813 19.2-12.8 11.093-4.693 30.293-4.693 65.707-4.693s54.613 0 65.707 4.693c7.253 2.987 13.653 7.253 19.2 12.8s9.813 11.947 12.8 19.627c4.693 11.093 4.693 30.293 4.693 65.707s0 54.613-4.693 65.707c-5.973 14.507-17.493 26.027-32.427 32.427-11.093 4.693-30.293 4.693-65.707 4.693zM853.333 273.067h-128c-14.080 0-25.6 11.52-25.6 25.6s11.52 25.6 25.6 25.6h102.4v76.8h-17.067c-14.080 0-25.6 11.52-25.6 25.6s11.52 25.6 25.6 25.6h42.667c14.080 0 25.6-11.52 25.6-25.6v-128c0-14.080-11.52-25.6-25.6-25.6zM682.667 401.067h-85.333c-14.080 0-25.6 11.52-25.6 25.6s11.52 25.6 25.6 25.6h85.333c14.080 0 25.6-11.52 25.6-25.6s-11.52-25.6-25.6-25.6zM725.333 571.733c-43.093 0-64.853 0-85.333 8.533-13.653 5.547-25.6 13.653-35.84 23.893s-18.347 22.613-23.893 35.84c-8.533 20.48-8.533 42.24-8.533 85.333s0 64.853 8.533 85.333c11.52 27.307 32.853 48.64 60.16 60.16 20.48 8.533 41.813 8.533 85.333 8.533s64.853 0 85.333-8.533c27.307-11.52 48.64-32.853 60.16-60.16 8.533-20.48 8.533-42.24 8.533-85.333s0-64.853-8.533-85.333c-5.547-13.653-13.653-25.6-23.893-35.84s-22.613-18.347-35.84-23.893c-20.48-8.533-41.813-8.533-85.333-8.533zM725.333 827.733c-35.413 0-54.613 0-65.707-4.693-14.507-5.973-26.027-17.493-32.427-32.427-4.693-11.093-4.693-30.293-4.693-65.707s0-54.613 4.693-65.707c2.987-7.253 7.253-13.653 12.8-19.2s12.373-9.813 19.627-12.8c11.093-4.693 30.293-4.693 65.707-4.693s54.613 0 65.707 4.693c7.253 2.987 13.653 7.253 19.2 12.8s9.813 11.947 12.8 19.2c4.693 11.093 4.693 30.293 4.693 65.707s0 54.613-4.693 65.707c-5.973 14.933-17.493 26.027-32.427 32.427-11.093 4.693-30.293 4.693-65.707 4.693zM298.667 571.733c-43.093 0-64.853 0-85.333 8.533-13.653 5.547-25.6 13.653-35.84 23.893s-18.347 22.613-23.893 35.84c-8.533 20.48-8.533 42.24-8.533 85.333s0 64.853 8.533 85.333c11.52 27.307 32.853 48.64 60.16 60.16 20.48 8.533 42.24 8.533 85.333 8.533s64.853 0 85.333-8.533c27.307-11.52 48.64-32.853 60.16-60.16 8.533-20.48 8.533-42.24 8.533-85.333s0-64.853-8.533-84.907c-5.547-13.653-13.653-25.6-23.893-35.84s-22.613-18.347-35.84-23.893c-20.48-8.533-42.24-8.533-85.333-8.533zM298.667 827.733c-34.987 0-54.613 0-65.707-4.693-14.507-5.973-26.027-17.493-32.427-32.427-4.693-11.093-4.693-30.293-4.693-65.707s0-54.613 4.693-65.707c2.987-7.253 7.253-13.653 12.8-19.2s11.947-9.813 19.2-12.8c11.093-4.693 30.293-4.693 65.707-4.693s54.613 0 65.707 4.693c7.253 2.987 13.653 7.253 19.2 12.8s9.813 11.947 12.8 19.627c4.693 11.093 4.693 30.293 4.693 65.707s0 54.613-4.693 65.707c-5.973 14.507-17.493 26.027-32.427 32.427-11.093 4.693-30.293 4.693-65.707 4.693z" />
<glyph unicode="&#xe93b;" glyph-name="refresh" d="M512 127.573c-20.907 0-41.813 2.133-62.293 5.973-61.867 12.373-118.613 42.667-163.413 87.040-44.8 44.8-75.093 101.12-87.467 163.413s-5.973 125.867 18.347 184.32c24.32 58.453 64.853 107.947 117.333 142.933s113.92 53.76 177.067 53.76c119.467 0 142.080-10.667 147.627-34.56 3.413-14.080-4.267-28.587-19.2-35.84-12.373-6.4-28.16-1.28-34.133 11.52-0.427 0.853-0.853 2.133-1.28 3.413-14.080 2.133-40.96 4.267-93.013 4.267s-104.533-15.787-148.907-45.227c-44.373-29.44-78.080-71.253-98.56-120.32s-25.6-102.4-15.36-154.88c10.24-52.053 35.84-99.413 73.387-136.96s84.907-62.72 136.96-73.387c52.053-10.24 105.387-5.12 154.88 15.36 49.067 20.48 90.453 54.613 120.32 98.56 29.44 44.373 45.227 95.573 45.227 148.907 0 14.080 11.52 25.6 25.6 25.6s25.6-11.52 25.6-25.6c0-63.147-18.347-124.587-53.76-177.067s-84.907-93.44-143.36-117.333c-38.827-16.213-80.213-24.32-122.027-24.32zM512 560.64c-6.4 0-13.227 2.56-17.92 7.68-9.813 9.813-9.813 26.027 0 36.267l128.427 128.427-128.427 128.427c-9.813 9.813-9.813 26.027 0 36.267s26.027 9.813 36.267 0l146.773-146.773c9.813-9.813 9.813-26.027 0-36.267l-146.773-146.773c-5.12-5.12-11.52-7.68-17.92-7.68z" />
<glyph unicode="&#xe93c;" glyph-name="run" d="M607.996 680c23.731 0 46.933 7.038 66.667 20.224s35.115 31.927 44.198 53.854c9.084 21.927 11.46 46.055 6.827 69.333-4.629 23.278-16.060 44.66-32.841 61.442s-38.165 28.211-61.44 32.841c-23.279 4.63-47.407 2.254-69.333-6.829s-40.67-24.463-53.854-44.197c-13.188-19.734-20.224-42.935-20.224-66.668 0-31.826 12.642-62.348 35.145-84.853 22.507-22.505 53.030-35.147 84.855-35.147zM607.996 872c14.238 0 28.16-4.223 40-12.134s21.069-19.156 26.517-32.312c5.449-13.156 6.878-27.633 4.096-41.6-2.778-13.967-9.634-26.796-19.703-36.865s-22.899-16.927-36.864-19.705c-13.969-2.778-28.446-1.352-41.6 4.097-13.158 5.45-24.401 14.678-32.311 26.518-7.915 11.84-12.134 25.761-12.134 40.001 0 19.095 7.586 37.409 21.086 50.912 13.504 13.503 31.817 21.088 50.914 21.088zM873.954 468.561c-2.359-1.079-28.681-12.523-75.52-12.523-55.441 0-139.601 16-246.921 84.002-17.195-51.341-40.606-100.386-69.717-146.039 37.717-11.123 88-30.882 132.757-65.041 75.281-57.161 113.442-135.561 113.442-232.96 0-6.366-2.53-12.471-7.031-16.969-4.501-4.501-10.603-7.031-16.969-7.031s-12.471 2.53-16.973 7.031c-4.501 4.497-7.027 10.603-7.027 16.969 0 176-148.919 236.719-227.639 256.439-3.2-4.134-6.481-8.252-9.843-12.361-76.998-93.239-173.359-141.798-280.438-141.798-12.181-0.038-24.357 0.533-36.48 1.719-3.152 0.316-6.211 1.246-9.002 2.743s-5.26 3.533-7.266 5.982c-2.006 2.453-3.509 5.274-4.424 8.307s-1.224 6.217-0.908 9.365c0.315 3.153 1.248 6.212 2.745 9.003s3.53 5.261 5.981 7.266c4.951 4.053 11.308 5.969 17.674 5.333 106.52-10.641 199.080 30.639 275.080 122.761 52.642 63.761 87.761 142.037 104.32 196.599-162.039 98.080-266.359 19.119-270.88 15.561-4.989-3.81-11.273-5.513-17.502-4.74-6.229 0.768-11.91 3.947-15.823 8.853s-5.748 11.154-5.112 17.399c0.636 6.244 3.694 11.991 8.517 16.008 1.48 1.2 37.56 29.72 99.040 40 55.44 9.24 143.682 5.2 249.44-66.682 188.561-128 295.522-81.877 296.559-81.399 2.871 1.314 5.969 2.052 9.122 2.167 3.149 0.115 6.293-0.393 9.25-1.493 2.957-1.097 5.67-2.769 7.979-4.915 2.313-2.146 4.177-4.727 5.491-7.599 1.314-2.867 2.048-5.965 2.163-9.118s-0.388-6.298-1.489-9.254c-1.101-2.957-2.769-5.666-4.919-7.979-2.146-2.308-4.727-4.173-7.595-5.487l-0.081-0.119z" />
<glyph unicode="&#xe93d;" glyph-name="search" d="M469.333 187.733c-202.24 0-366.933 164.693-366.933 366.933s164.693 366.933 366.933 366.933 366.933-164.693 366.933-366.933-164.693-366.933-366.933-366.933zM469.333 870.4c-174.080 0-315.733-141.653-315.733-315.733s141.653-315.733 315.733-315.733 315.733 141.653 315.733 315.733-141.653 315.733-315.733 315.733zM896 102.4c-6.4 0-13.227 2.56-17.92 7.68l-185.6 185.6c-9.813 9.813-9.813 26.027 0 36.267 9.813 9.813 26.027 9.813 36.267 0l185.6-185.6c9.813-9.813 9.813-26.027 0-36.267-5.12-5.12-11.52-7.68-17.92-7.68z" />
<glyph unicode="&#xe93e;" glyph-name="setting" d="M512 352c-78.933 0-142.933 64-142.933 142.933s64 142.933 142.933 142.933 142.933-64 142.933-142.933-64-142.933-142.933-142.933zM512 586.667c-50.773 0-91.733-40.96-91.733-91.733s40.96-91.733 91.733-91.733 91.733 40.96 91.733 91.733-40.96 91.733-91.733 91.733zM514.987 39.253c-27.733 0-53.76 10.667-73.387 30.293-19.2 19.2-30.293 46.080-30.293 73.387 0 10.667-2.56 18.347-7.253 24.747s-10.667 11.093-18.347 13.653c-8.96 3.84-16.64 4.693-24.32 3.413s-14.933-5.12-20.48-10.667c-11.947-11.947-23.040-19.627-35.84-24.747-25.173-10.24-54.187-10.667-79.36 0-12.373 5.12-23.893 12.8-33.707 22.613s-17.493 21.333-22.613 33.707c-5.12 12.8-8.107 26.027-8.107 39.68s2.56 27.307 8.107 39.68c5.12 12.373 12.8 23.893 22.613 33.707 7.68 7.68 11.093 14.933 12.8 22.613 1.28 7.68 0.427 15.36-2.56 22.613s-8.107 13.227-14.507 17.493c-6.4 4.267-13.653 6.4-21.333 6.4h-6.4c-27.733 0-53.76 10.667-73.387 30.293s-30.293 45.653-30.293 73.387 10.667 53.76 30.293 73.387c19.627 19.627 45.653 30.293 73.387 30.293 10.667 0 18.347 2.56 24.747 7.253s11.093 10.667 14.080 18.347c3.84 8.533 4.693 16.64 3.413 24.32s-5.12 14.933-10.667 20.48c-11.947 11.947-19.627 23.040-24.747 35.84s-8.107 26.027-8.107 39.68 2.56 27.307 8.107 39.68c5.12 12.8 12.8 23.893 22.613 33.707s20.907 17.067 33.707 22.613c25.173 10.667 54.187 10.667 79.36 0 12.8-5.12 23.893-12.8 33.707-22.613 7.68-7.68 14.933-11.093 22.187-12.8 7.68-1.28 15.36-0.427 22.613 2.56 2.133 0.853 4.693 1.707 7.253 2.133 5.12 2.987 9.813 7.253 13.227 12.373 4.267 6.4 6.4 13.653 6.4 21.333v6.4c0 27.733 10.667 53.76 30.293 73.387 38.827 38.827 107.947 38.827 146.773 0 19.627-19.627 30.293-45.653 30.293-73.387 0-11.093 2.133-18.347 6.4-24.747s10.24-11.093 17.067-14.080c7.253-3.413 15.36-4.267 23.040-2.987s14.507 5.12 20.053 10.667c11.947 11.947 23.040 19.627 35.84 24.747 25.173 10.667 54.187 10.667 79.36 0 12.8-5.12 23.893-12.8 33.707-22.613s17.067-20.907 22.613-33.707c5.12-12.8 8.107-26.027 8.107-39.68s-2.56-27.307-8.107-39.68c-5.12-12.8-12.8-23.893-22.613-33.707-7.68-7.68-11.093-14.507-12.373-22.187s-0.427-15.36 2.56-22.613c0.853-2.133 1.707-4.693 2.133-7.253 2.987-5.547 7.253-9.813 12.373-13.227 6.4-4.267 13.653-6.4 21.333-6.4h6.4c27.733 0 53.76-10.667 73.387-30.293s30.293-45.653 30.293-73.387-10.667-53.76-30.293-73.387c-19.627-19.627-45.653-30.293-73.387-30.293-11.093 0-18.347-2.133-24.747-6.4s-11.093-10.24-14.080-17.067v0c-2.987-7.253-4.267-15.36-2.56-23.040 1.28-7.68 5.12-14.507 10.24-20.053 11.947-11.947 19.627-23.040 24.747-35.84s8.107-26.027 8.107-39.68-2.56-26.88-7.68-39.68c-5.12-12.8-12.8-23.893-22.613-33.707s-20.907-17.493-33.707-22.613c-25.173-10.24-54.187-10.667-79.36 0-12.373 5.12-23.893 12.8-33.707 22.613-7.68 7.68-14.933 11.093-22.613 12.373s-15.36 0.427-22.613-2.56c-7.253-2.987-13.227-8.107-17.493-14.507s-6.4-13.653-6.4-21.333v-6.4c0-27.307-11.093-54.187-30.293-73.387-19.627-19.627-45.653-30.293-73.387-30.293zM368.64 236.8c12.373 0 24.747-2.56 36.267-7.68 15.36-5.547 30.293-16.64 40.533-31.573 10.667-14.933 16.213-32 16.64-50.347 0-17.92 5.547-31.573 15.36-41.387 20.053-19.627 54.613-20.053 74.24 0 9.813 9.813 15.36 23.467 15.36 37.12v6.827c0 17.92 5.12 34.987 14.933 49.493s23.467 26.027 39.68 33.28c16.213 7.253 34.56 9.387 52.48 5.973s33.707-11.52 46.933-24.32c7.68-7.68 13.227-11.52 19.627-14.080 12.8-5.12 27.733-5.12 40.533 0 6.4 2.56 12.373 6.4 17.067 11.52 5.12 5.12 8.96 10.667 11.52 17.067s3.84 13.227 3.84 20.053-1.28 13.653-3.84 20.053c-2.56 6.4-6.4 12.373-11.52 17.067-15.36 15.36-23.467 31.573-26.88 49.493s-0.853 35.84 5.973 52.48c6.827 16.213 18.347 29.867 32.853 39.68 14.933 9.813 32 14.933 49.493 14.933s30.72 5.547 40.96 15.36c9.813 9.813 15.36 23.040 15.36 37.12s-5.547 27.307-15.36 37.12c-9.813 9.813-23.040 15.36-37.12 15.36h-6.827c-17.92 0-34.987 5.12-49.493 14.933s-26.027 23.467-33.28 39.68c-1.28 2.56-1.707 5.12-2.133 8.107-5.547 14.933-7.253 31.147-4.267 47.36 3.413 17.92 11.52 34.133 24.32 46.933 7.253 7.253 11.093 13.227 14.080 19.627 2.56 6.4 4.267 13.227 4.267 20.053s-1.28 13.653-3.84 20.053c-2.56 6.4-6.4 12.373-11.52 17.067-5.12 5.12-10.667 8.96-17.067 11.52-12.8 5.12-27.307 5.12-40.533 0-6.4-2.56-11.947-6.4-17.067-11.52-15.36-15.36-31.573-23.467-49.493-26.88-17.92-2.987-36.267-0.853-52.48 6.4-16.213 6.827-29.867 18.347-39.253 32.853-9.813 14.507-14.933 31.573-14.933 49.493 0 17.493-5.547 30.72-15.36 40.96-19.627 19.627-54.613 19.627-74.24 0-9.813-9.813-15.36-23.040-15.36-37.12v-6.827c0-17.92-5.12-34.987-14.933-49.493s-23.467-26.027-39.68-32.853c-2.56-1.28-5.12-1.707-8.107-2.133-14.933-5.547-31.147-7.253-47.36-4.267-17.92 3.413-34.133 11.52-46.933 24.32-7.253 7.253-13.227 11.093-19.627 14.080-12.8 5.12-27.307 5.12-40.107 0-6.4-2.56-12.373-6.4-17.067-11.52-5.12-5.12-8.96-10.667-11.52-17.067s-3.84-13.227-3.84-20.053 1.28-13.653 3.84-20.053c2.56-6.4 6.4-12.373 11.52-17.067 15.36-15.36 23.467-31.573 26.88-49.493s1.28-35.84-6.4-52.48c-5.547-15.36-16.64-30.293-31.573-40.533-14.507-10.667-32-16.213-50.347-16.64-18.347 0-31.573-5.547-41.387-15.36s-15.36-23.040-15.36-37.12 5.547-27.307 15.36-37.12c9.813-9.813 23.040-15.36 37.12-15.36h6.827c17.493 0 34.56-5.12 49.493-14.933s26.027-23.467 33.28-39.68c7.253-16.213 9.387-34.56 5.973-52.053-3.413-17.92-11.52-34.133-24.32-46.933-7.253-7.253-11.52-13.227-14.080-19.627s-3.84-13.227-3.84-20.053 1.28-13.653 3.84-20.053c2.56-6.4 6.4-12.373 11.52-17.067 5.12-5.12 10.667-8.96 17.067-11.52 12.8-5.12 27.733-5.12 40.107 0 6.4 2.56 12.373 6.4 17.067 11.52 15.36 15.36 31.573 23.467 49.493 26.88 5.12 0.853 10.667 1.28 16.213 1.28zM801.28 377.6v0 0z" />
<glyph unicode="&#xe93f;" glyph-name="share" d="M792 202.667c0-6.366-2.53-12.471-7.031-16.973-4.497-4.501-10.603-7.027-16.969-7.027h-608c-14.847 0.017-29.081 5.922-39.579 16.418-10.498 10.5-16.404 24.734-16.421 39.582v479.998c0 6.365 2.528 12.47 7.029 16.971s10.606 7.029 16.971 7.029c6.365 0 12.47-2.528 16.971-7.029s7.029-10.605 7.029-16.971v-479.998c0.003-2.125 0.847-4.156 2.347-5.653 1.5-1.502 3.532-2.347 5.653-2.347h608c6.366 0 12.471-2.53 16.969-7.031 4.501-4.501 7.031-10.607 7.031-16.969zM915.994 637.393l0.141 0.24c0.806 1.237 1.498 2.547 2.061 3.912 0.043 0.1 0.068 0.2 0.111 0.296 0.538 1.351 0.951 2.749 1.237 4.176l0.034 0.232c0.563 2.917 0.563 5.915 0 8.832-0.013 0.080-0.021 0.16-0.038 0.232-0.282 1.425-0.695 2.822-1.233 4.172l-0.111 0.3c-0.563 1.365-1.254 2.674-2.061 3.912l-0.141 0.24c-0.892 1.341-1.916 2.59-3.055 3.728l-191.97 191.968c-4.527 4.372-10.59 6.791-16.883 6.736s-12.309-2.579-16.759-7.028c-4.45-4.45-6.976-10.469-7.031-16.762-0.051-6.293 2.364-12.355 6.737-16.881l151.027-151.032h-166.059c-90.483 0.061-178.415-29.974-249.951-85.378-71.537-55.398-122.615-133.022-145.193-220.642-0.818-3.063-1.021-6.259-0.598-9.399s1.465-6.17 3.065-8.905c1.6-2.739 3.726-5.133 6.256-7.040 2.53-1.911 5.414-3.302 8.484-4.092s6.267-0.964 9.405-0.512c3.138 0.452 6.156 1.523 8.878 3.145 2.722 1.626 5.095 3.776 6.982 6.323s3.251 5.444 4.013 8.521c19.926 77.308 64.998 145.788 128.12 194.667 63.121 48.878 140.706 75.372 220.54 75.313h166.059l-151.027-151.034c-2.291-2.21-4.122-4.86-5.376-7.787-1.259-2.931-1.92-6.080-1.95-9.267-0.026-3.187 0.58-6.345 1.788-9.297 1.207-2.948 2.987-5.628 5.239-7.881 2.257-2.253 4.937-4.036 7.885-5.244s6.11-1.813 9.297-1.783c3.187 0.026 6.336 0.687 9.263 1.946s5.577 3.085 7.791 5.38l191.97 191.967c1.139 1.137 2.163 2.386 3.055 3.728z" />
<glyph unicode="&#xe940;" glyph-name="sponsor" d="M915.319 461.598c-10.526 8.107-22.78 13.67-35.81 16.256s-26.483 2.125-39.305-1.348l-16.602-3.844c83.571 77.692 125.837 154.69 125.837 229.653 0 97.44-78.345 176.744-174.669 176.744-27.166 0.17-53.999-5.992-78.37-17.996-24.367-12.005-45.606-29.523-62.029-51.165-16.418 21.642-37.658 39.16-62.029 51.165-24.367 12.005-51.2 18.167-78.366 17.996-96.325 0-174.668-79.304-174.668-176.744 0-43.725 13.947-86.412 43.379-132.019-24.125-3.721-46.424-15.074-63.628-32.393l-89.179-89.178h-113.423c-14.266 0-27.948-5.666-38.036-15.757-10.088-10.086-15.755-23.77-15.755-38.033v-153.694c0-14.263 5.667-27.947 15.755-38.033 10.088-10.091 23.77-15.757 38.036-15.757h399.593c1.894 0 3.776 0.23 5.611 0.691l245.905 61.478c1.165 0.307 2.304 0.691 3.418 1.152l150.426 64.051c13.188 6.583 24.482 16.418 32.819 28.578 8.337 12.156 13.44 26.236 14.831 40.909 1.395 14.677-0.973 29.466-6.878 42.97-5.901 13.508-15.147 25.293-26.863 34.24v0.077zM493.978 832.951c25.353 0.338 50.231-6.896 71.45-20.777s37.815-33.778 47.659-57.144c1.741-4.228 4.693-7.845 8.491-10.39s8.265-3.904 12.834-3.904c4.574 0 9.041 1.359 12.838 3.904s6.75 6.161 8.486 10.39c9.847 23.366 26.441 43.263 47.663 57.144 21.218 13.881 46.093 21.115 71.45 20.777 69.619 0 128.482-59.824 128.482-130.636 0-77.767-62.165-165.218-179.814-252.629l-57.135-13.141c5.696 15.121 7.646 31.394 5.67 47.428-1.971 16.034-7.804 31.356-16.994 44.642s-21.47 24.145-35.78 31.646c-14.306 7.501-30.221 11.418-46.379 11.418h-154.959c-35.771 47.375-52.524 89.101-52.524 130.636 0 70.813 58.863 130.636 128.561 130.636zM88.774 241.242v153.694c0 2.035 0.81 3.989 2.251 5.431s3.395 2.253 5.434 2.253h99.898v-169.062h-99.898c-2.038 0-3.993 0.811-5.434 2.253s-2.251 3.396-2.251 5.431zM881.353 356.51l-146.773-62.511-241.37-60.442h-250.746v182.545l89.179 89.22c6.409 6.443 14.031 11.55 22.427 15.023 8.396 3.477 17.398 5.252 26.485 5.227h192.343c14.268 0 27.947-5.67 38.037-15.757 10.086-10.086 15.753-23.77 15.753-38.037s-5.666-27.947-15.753-38.037c-10.091-10.086-23.77-15.753-38.037-15.753h-107.584c-6.114 0-11.977-2.432-16.299-6.754-4.326-4.322-6.754-10.185-6.754-16.299s2.428-11.981 6.754-16.303c4.322-4.322 10.185-6.754 16.299-6.754h122.953c1.732 0 3.46 0.192 5.15 0.576l258.351 59.443c9.69 2.641 20.015 1.609 28.988-2.897 8.977-4.506 15.97-12.169 19.639-21.521 3.669-9.348 3.755-19.721 0.239-29.129s-10.381-17.186-19.281-21.841z" />
<glyph unicode="&#xe941;" glyph-name="switch" d="M755.627 479.147h-483.413c-14.080 0-25.6 11.52-25.6 25.6v329.813c0 14.080 11.52 25.6 25.6 25.6h118.187l36.267 54.613c4.693 7.253 12.8 11.52 21.333 11.52h131.84c8.533 0 16.64-4.267 21.333-11.52l36.267-54.613h118.187c14.080 0 25.6-11.52 25.6-25.6v-329.813c0-14.080-11.52-25.6-25.6-25.6zM297.813 530.347h432.213v278.613h-106.24c-8.533 0-16.64 4.267-21.333 11.52l-36.267 54.613h-104.533l-36.267-54.613c-4.693-7.253-12.8-11.52-21.333-11.52h-106.24v-278.613zM425.813 82.347c-6.827 0-13.653 2.56-19.2 8.107-10.667 10.667-10.667 27.733 0 38.4l68.693 68.693-68.693 68.693c-10.667 10.667-10.667 27.733 0 38.4s27.733 10.667 38.4 0l87.893-87.893c10.667-10.667 10.667-27.733 0-38.4l-87.893-87.893c-5.12-5.12-12.373-8.107-19.2-8.107zM513.707 171.52c-268.8 0-487.253 110.080-487.253 245.333 0 56.747 34.56 110.080 99.413 153.173 11.947 7.68 27.733 4.693 35.413-7.253s4.693-27.733-7.253-35.413c-34.987-23.040-76.373-61.44-76.373-110.507 0-101.547 207.787-194.133 436.053-194.133 14.080 0 25.6-11.52 25.6-25.6s-11.52-25.6-25.6-25.6zM689.493 189.867c-11.947 0-22.187 8.107-24.747 20.053-2.987 13.653 5.547 27.307 19.627 30.293 154.027 33.707 265.813 107.947 265.813 176.64 0 49.493-41.813 87.467-76.373 110.507-11.947 7.68-14.933 23.893-7.253 35.413s23.893 14.933 35.413 7.253c64.853-43.093 99.413-96.427 99.413-153.173 0-117.76-164.693-195.84-305.92-226.56-1.707 0-3.84-0.427-5.547-0.427zM513.707 589.227c-50.347 0-91.733 40.96-91.733 91.733s40.96 91.733 91.733 91.733 91.733-40.96 91.733-91.733-40.96-91.733-91.733-91.733zM513.707 721.067c-22.187 0-40.107-17.92-40.107-40.107s17.92-40.533 40.107-40.533 40.533 17.92 40.533 40.533-17.92 40.107-40.533 40.107z" />
<glyph unicode="&#xe942;" glyph-name="timer" d="M512 802.667c-74.364 0-147.061-22.052-208.894-63.367s-110.026-100.039-138.484-168.744c-28.459-68.706-35.905-144.307-21.397-217.242 14.508-72.939 50.319-139.934 102.903-192.521 52.585-52.582 119.581-88.393 192.519-102.903 72.934-14.507 148.535-7.061 217.242 21.397s127.428 76.651 168.742 138.483c41.318 61.833 63.369 134.532 63.369 208.896-0.111 99.686-39.761 195.259-110.251 265.748s-166.063 110.14-265.749 110.252zM512 98.667c-64.87 0-128.288 19.238-182.227 55.279s-95.98 87.266-120.806 147.2c-24.826 59.934-31.321 125.884-18.665 189.513 12.656 63.625 43.895 122.068 89.766 167.939s104.316 77.111 167.939 89.767c63.629 12.656 129.579 6.16 189.513-18.665s111.159-66.866 147.2-120.805c36.041-53.941 55.279-117.357 55.279-182.227-0.098-86.959-34.688-170.33-96.179-231.821-61.487-61.491-144.862-96.081-231.821-96.179zM687.36 602.027c4.501-4.501 7.027-10.607 7.027-16.969 0-6.366-2.526-12.471-7.027-16.973l-158.387-158.391c-4.501-4.501-10.607-7.027-16.973-7.027s-12.471 2.526-16.973 7.027c-4.501 4.501-7.027 10.607-7.027 16.973s2.526 12.471 7.027 16.973l158.391 158.391c2.231 2.229 4.877 3.997 7.787 5.204 2.914 1.207 6.033 1.827 9.186 1.827s6.272-0.621 9.186-1.827c2.91-1.206 5.559-2.974 7.787-5.204l-0.004-0.004zM392 906.667c0 6.365 2.529 12.47 7.030 16.971s10.605 7.029 16.97 7.029h192c6.366 0 12.471-2.528 16.973-7.029 4.497-4.501 7.027-10.606 7.027-16.971s-2.53-12.47-7.027-16.971c-4.501-4.501-10.607-7.029-16.973-7.029h-192c-6.365 0-12.469 2.528-16.97 7.029s-7.030 10.606-7.030 16.971z" />
<glyph unicode="&#xe943;" glyph-name="touch-id" d="M437.333 190.293c-6.827 0-14.080 2.987-19.2 8.533-9.387 10.667-8.533 26.88 1.707 36.267 70.4 63.147 98.987 159.573 74.24 251.307-3.84 13.653 4.267 27.733 17.92 31.147s27.733-4.267 31.147-17.92c29.44-110.507-4.693-226.56-89.6-302.507-4.693-4.267-11.093-6.4-17.067-6.4zM250.88 398.080c-11.52 0-21.76 7.68-24.747 19.2-23.467 90.88-4.267 185.173 52.907 258.987 58.027 74.667 147.627 119.467 240.213 119.467 188.16 0 311.040-145.92 312.32-372.053 0-14.080-11.093-25.6-25.6-25.6v0c-14.080 0-25.6 11.52-25.6 25.6-1.28 197.973-101.12 320.853-261.12 320.853-76.8 0-151.467-37.12-199.68-99.413-47.787-61.867-63.573-138.24-43.52-214.613 3.413-13.653-4.693-27.733-18.347-31.147-2.133-0.427-4.267-0.853-6.4-0.853zM612.693 190.293c-4.267 0-8.533 1.28-12.8 3.413-12.373 6.827-16.64 22.613-9.387 34.987 23.040 40.533 38.4 84.053 45.653 129.707 8.107 49.493 10.667 158.293-36.267 213.333-19.627 23.040-46.080 34.56-81.067 34.56-62.293 0-113.067-50.773-113.067-112.64 0-3.84 1.28-9.387 2.133-16.213 7.253-42.667 23.893-142.080-76.373-198.4-12.373-6.827-27.733-2.56-34.987 9.813-6.827 12.373-2.56 27.733 9.813 34.987 63.573 35.84 59.733 91.307 50.773 145.493-1.707 10.667-2.987 19.2-2.987 24.747 0 90.453 73.813 163.84 164.267 163.84 49.92 0 90.027-17.493 119.893-52.48 72.533-84.907 50.773-237.227 48.213-254.293-8.533-51.627-25.6-101.12-51.627-147.2-4.693-8.107-13.227-12.8-22.187-12.8zM120.747 684.373c-14.080 0-25.6 11.52-25.6 25.6v45.653c0 106.24 49.493 156.16 156.16 156.16h45.653c14.080 0 25.6-11.52 25.6-25.6s-11.52-25.6-25.6-25.6h-45.653c-78.507 0-104.96-26.453-104.96-104.96v-45.653c0-14.080-11.52-25.6-25.6-25.6zM296.96 78.507h-45.653c-106.24 0-156.16 49.493-156.16 156.16v45.653c0 14.080 11.52 25.6 25.6 25.6s25.6-11.52 25.6-25.6v-45.653c0-78.507 26.453-104.96 104.96-104.96h45.653c14.080 0 25.6-11.52 25.6-25.6s-11.52-25.6-25.6-25.6zM772.693 78.507h-45.653c-14.080 0-25.6 11.52-25.6 25.6s11.52 25.6 25.6 25.6h45.653c78.507 0 104.96 26.453 104.96 104.96v45.653c0 14.080 11.52 25.6 25.6 25.6s25.6-11.52 25.6-25.6v-45.653c0-106.24-49.493-156.16-156.16-156.16zM903.253 684.373c-14.080 0-25.6 11.52-25.6 25.6v45.653c0 78.507-26.453 104.96-104.96 104.96h-45.653c-14.080 0-25.6 11.52-25.6 25.6s11.52 25.6 25.6 25.6h45.653c106.24 0 156.16-49.493 156.16-156.16v-45.653c0-14.080-11.52-25.6-25.6-25.6z" />
<glyph unicode="&#xe944;" glyph-name="upload" d="M327.032 713.015c-4.441-4.512-6.918-10.597-6.894-16.928s2.551-12.396 7.027-16.874c4.477-4.477 10.541-7.005 16.872-7.031s12.417 2.45 16.931 6.89l127.032 127v-390.071c0-6.366 2.53-12.471 7.031-16.973 4.497-4.497 10.603-7.027 16.969-7.027s12.471 2.53 16.969 7.027c4.501 4.501 7.031 10.607 7.031 16.973v390.068l127.031-127c2.231-2.228 4.877-3.996 7.787-5.201 2.914-1.206 6.033-1.826 9.186-1.825s6.272 0.622 9.186 1.829c2.91 1.207 5.555 2.975 7.782 5.204 2.231 2.229 3.998 4.875 5.201 7.787 1.207 2.912 1.826 6.033 1.826 9.185s-0.623 6.273-1.826 9.184c-1.207 2.912-2.978 5.557-5.205 7.785l-168 167.96c-0.397 0.392-0.858 0.672-1.271 1.036-0.329 0.28-0.666 0.556-1.011 0.824-0.977 0.768-2.018 1.459-3.106 2.064l-0.393 0.208c-1.293 0.689-2.65 1.257-4.049 1.696-4.621 1.595-9.651 1.595-14.272 0-1.404-0.439-2.761-1.007-4.053-1.696l-0.393-0.208c-1.088-0.605-2.129-1.295-3.106-2.064-0.346-0.265-0.683-0.54-1.011-0.824-0.414-0.36-0.879-0.644-1.271-1.040l-168-167.956zM864 440c-6.366 0-12.471-2.53-16.969-7.031-4.501-4.497-7.031-10.603-7.031-16.969v-224c-0.004-2.121-0.849-4.156-2.347-5.653s-3.533-2.342-5.653-2.347h-640c-2.121 0.004-4.154 0.849-5.653 2.347s-2.344 3.533-2.347 5.653v224c0 6.366-2.528 12.471-7.029 16.969-4.501 4.501-10.606 7.031-16.971 7.031s-12.47-2.53-16.971-7.031c-4.501-4.497-7.029-10.603-7.029-16.969v-224c0.017-14.848 5.923-29.082 16.421-39.578 10.499-10.5 24.733-16.405 39.579-16.422h640c14.848 0.017 29.082 5.922 39.578 16.422 10.5 10.496 16.405 24.73 16.422 39.578v224c0 6.366-2.53 12.471-7.031 16.969-4.497 4.501-10.603 7.031-16.969 7.031z" />
<glyph unicode="&#xe945;" glyph-name="user" d="M920.823 172.045c-61.986 106.756-163.17 185.118-282.039 218.428 56.107 28.497 100.979 75.055 127.377 132.173 26.402 57.122 32.794 121.467 18.146 182.664-14.652 61.196-49.485 115.674-98.889 154.647s-110.494 60.169-173.419 60.169c-62.925 0-124.017-21.196-173.42-60.169s-84.239-93.451-98.888-154.647c-14.649-61.196-8.258-125.542 18.144-182.664 26.401-57.118 71.273-103.676 127.377-132.173-118.861-33.31-220.041-111.667-282.028-218.419-3.188-5.508-4.056-12.058-2.415-18.21 1.641-6.148 5.659-11.396 11.169-14.583s12.060-4.058 18.21-2.415c6.15 1.643 11.396 5.662 14.584 11.17 37.234 64.452 90.775 117.973 155.244 155.183s137.595 56.798 212.032 56.798c74.436 0 147.563-19.588 212.028-56.802 64.469-37.21 118.007-90.731 155.243-155.187 3.187-5.508 8.431-9.527 14.583-11.17 6.148-1.638 12.698-0.772 18.21 2.415 5.508 3.187 9.527 8.435 11.166 14.583 1.643 6.153 0.777 12.702-2.415 18.21zM280.001 639.999c0 45.885 13.606 90.74 39.099 128.892s61.726 67.888 104.119 85.448c42.394 17.559 89.041 22.154 134.042 13.202 45.005-8.952 86.345-31.048 118.788-63.494 32.448-32.446 54.541-73.784 63.492-118.788 8.956-45.004 4.361-91.651-13.201-134.045-17.557-42.389-47.296-78.626-85.449-104.115-38.153-25.493-83.004-39.1-128.892-39.1-61.508 0.068-120.477 24.533-163.971 68.028s-67.958 102.464-68.028 163.971z" />
<glyph unicode="&#xe946;" glyph-name="warning-light" d="M488.009 448v160c0 6.365 2.53 12.47 7.027 16.971 4.501 4.501 10.607 7.029 16.973 7.029s12.467-2.528 16.969-7.029c4.501-4.501 7.031-10.605 7.031-16.971v-160c0-6.366-2.53-12.467-7.031-16.969s-10.603-7.031-16.969-7.031c-6.366 0-12.471 2.53-16.973 7.031-4.497 4.501-7.027 10.603-7.027 16.969zM940.147 180.070c-7.65-13.449-18.743-24.619-32.141-32.358s-28.617-11.772-44.092-11.678h-703.814c-15.455 0-30.637 4.070-44.019 11.802s-24.492 18.85-32.212 32.239c-7.72 13.389-11.778 28.574-11.766 44.028s4.095 30.635 11.836 44.011l351.908 607.976c7.731 13.355 18.837 24.442 32.205 32.151s28.527 11.766 43.955 11.766c15.433 0 30.592-4.058 43.959-11.766s24.474-18.796 32.205-32.151l351.902-607.967c7.834-13.346 11.968-28.535 11.981-44.011s-4.096-30.673-11.908-44.032v-0.009zM898.53 244.070l-351.902 607.97c-3.516 6.070-8.563 11.109-14.639 14.612s-12.966 5.347-19.981 5.347c-7.014 0-13.905-1.844-19.981-5.347s-11.123-8.542-14.639-14.612l-351.909-607.97c-3.52-6.080-5.376-12.979-5.382-20.002-0.006-7.027 1.839-13.931 5.348-20.015 3.509-6.089 8.56-11.145 14.644-14.656 6.083-3.516 12.985-5.363 20.011-5.363h703.814c7.027 0 13.926 1.847 20.011 5.363s11.132 8.572 14.643 14.656c3.507 6.084 5.35 12.988 5.346 20.015-0.009 7.023-1.865 13.922-5.385 20.002zM512.009 344c-7.91 0-15.646-2.347-22.225-6.741-6.575-4.395-11.703-10.641-14.729-17.95-3.029-7.309-3.823-15.351-2.278-23.113 1.545-7.757 5.355-14.886 10.948-20.48s12.719-9.404 20.48-10.948c7.757-1.54 15.799-0.751 23.113 2.278 7.309 3.025 13.555 8.154 17.95 14.733 4.395 6.575 6.741 14.31 6.741 22.221 0 10.611-4.215 20.783-11.716 28.284s-17.677 11.716-28.284 11.716z" />
<glyph unicode="&#xe947;" glyph-name="whatsapp" d="M608 262.4c-92.16 0-179.2 35.84-244.48 101.12s-101.12 151.893-101.12 244.48c0 40.96 15.787 79.787 44.8 108.8s67.413 44.8 108.8 44.8c9.813 0 18.773-5.547 23.040-14.080l64-128c4.267-8.107 3.413-17.92-1.707-25.6l-41.387-61.867c15.787-31.147 40.96-55.893 71.68-72.107l61.867 41.387c7.68 5.12 17.493 5.547 25.6 1.707l128-64c8.533-4.267 14.080-13.227 14.080-23.040 0-40.96-15.787-79.787-44.8-108.373-29.013-29.013-67.413-44.8-108.373-44.8zM400.64 709.12c-21.333-2.987-41.387-13.227-57.173-29.013-19.2-19.2-29.867-45.227-29.867-72.533 0-78.507 30.72-152.747 86.187-208.213s129.707-86.187 208.213-86.187c27.307 0 52.907 10.667 72.533 29.867 15.787 15.787 25.6 35.413 29.013 57.173l-99.413 49.92-61.44-40.96c-7.253-4.693-16.213-5.547-23.893-2.133-53.333 22.187-94.72 64-117.333 117.333-3.413 8.107-2.56 17.067 2.133 23.893l40.96 61.44-49.92 99.413zM512 102.4c-67.84 0-134.827 16.64-194.987 49.493l-138.667-46.080c-10.24-3.413-20.907-3.84-31.147-1.28-10.667 2.56-20.053 7.68-27.733 15.36s-12.8 17.067-15.36 27.307c-2.56 10.667-2.133 21.333 1.28 31.573l46.507 138.667c-45.227 83.627-60.16 180.907-41.387 274.773 19.2 97.707 73.387 184.747 152.32 245.333s177.067 90.027 276.053 84.053c99.413-6.4 192.427-48.64 262.827-119.040s112.64-163.84 119.040-262.827c6.4-99.413-23.467-197.12-84.053-276.053s-147.627-133.12-245.333-152.32c-26.453-5.12-52.907-7.68-79.787-7.68zM512 870.4c-78.933 0-155.307-26.027-218.453-74.24-69.12-52.907-116.48-129.28-133.12-214.613-17.067-85.333-2.133-174.080 41.387-249.173 3.84-6.4 4.267-14.080 2.133-20.907l-49.92-149.333 1.707-6.4 14.507-26.027-8.107 24.32 149.76 49.92c6.827 2.133 14.507 1.707 20.907-2.133 75.52-43.52 163.84-58.453 249.173-41.387s161.707 64.427 214.613 133.12c52.907 69.12 78.933 154.88 73.387 241.493-5.547 87.040-42.667 168.533-104.107 229.973s-143.36 98.56-229.973 104.107c-7.68 0.427-15.787 0.853-23.467 0.853z" />
<glyph unicode="&#xe948;" glyph-name="wheelchair" d="M1014.75 263.599c-2.018 6.037-6.349 11.025-12.041 13.867s-12.284 3.307-18.321 1.293l-76.399-25.399-118.72 237.359c-1.975 3.964-5.009 7.3-8.768 9.643-3.755 2.342-8.085 3.605-12.51 3.639h-328v111.8h232c6.366 0 12.467 2.528 16.969 7.029s7.031 10.605 7.031 16.971c0 6.365-2.53 12.47-7.031 16.97s-10.603 7.030-16.969 7.030h-232v50.6c29.137 5.948 55.027 22.502 72.653 46.454s25.728 53.595 22.737 83.183c-2.987 29.587-16.858 57.011-38.916 76.954s-50.735 30.985-80.475 30.985c-29.738 0-58.416-11.042-80.475-30.985s-35.928-47.367-38.917-76.954c-2.989-29.587 5.114-59.23 22.74-83.183s43.515-40.506 72.652-46.454v-56c-68.049-13.818-128.535-52.427-169.718-108.332s-60.124-125.12-53.146-194.206c6.979-69.086 39.378-133.116 90.909-179.657s118.517-72.273 187.956-72.205c130.479 0 248 88.32 279.241 210.001 0.785 3.051 0.964 6.229 0.525 9.348-0.439 3.123-1.489 6.127-3.089 8.841-1.604 2.714-3.721 5.090-6.242 6.985-2.517 1.894-5.385 3.277-8.435 4.066-3.051 0.785-6.229 0.964-9.348 0.525-3.123-0.439-6.127-1.489-8.841-3.089-2.718-1.6-5.090-3.721-6.985-6.238-1.899-2.522-3.277-5.389-4.066-8.439-25.963-100.838-124.002-173.999-232.759-173.999-56.632 0.021-111.3 20.753-153.703 58.291s-69.61 89.289-76.497 145.498c-6.886 56.209 7.025 112.998 39.113 159.663s80.134 79.979 135.086 93.668v-129.12c0-6.366 2.529-12.471 7.030-16.973 4.501-4.497 10.605-7.027 16.97-7.027h337.162l121.357-242.722c2.59-5.163 6.959-9.225 12.301-11.426 5.342-2.206 11.302-2.406 16.781-0.572l96 32c6.025 2.018 11.008 6.34 13.85 12.023 2.842 5.687 3.311 12.267 1.31 18.295zM343.99 832c0 14.24 4.223 28.161 12.134 40.001s19.156 21.069 32.313 26.518c13.156 5.449 27.633 6.875 41.6 4.097 13.965-2.778 26.795-9.635 36.864-19.705s16.926-22.899 19.703-36.865c2.782-13.967 1.353-28.443-4.096-41.6s-14.677-24.401-26.517-32.313c-11.84-7.912-25.762-12.134-40.001-12.134-19.095 0-37.409 7.586-50.912 21.088s-21.088 31.816-21.088 50.912z" />
<glyph unicode="&#xe949;" glyph-name="wheelchair-speed" d="M660.907 703.147c14.080-14.080 17.067-23.040 17.067-28.16 7.68-58.88-43.093-90.453-77.227-128.853-5.12-8.107-1.28-17.067 8.533-18.347 52.053-5.973 125.867 14.933 169.387-19.2 34.56-27.307 42.667-77.653 20.48-115.627l-121.6-122.027c-26.88-30.72-73.387-60.587-67.413-19.627 1.28 9.387 11.093 26.027 15.787 34.987 23.040 46.080 49.067 90.453 72.107 136.533 4.267 10.667-4.693 21.76-15.36 22.187-64.427 3.84-134.827-5.12-198.827 0s-92.16 78.507-54.613 129.707c25.6 34.987 59.733 66.56 85.333 101.973 6.4 10.24 4.267 23.467-2.987 32.427-2.987 3.84-25.173 19.627-29.867 21.76-17.92 8.107-28.16 1.707-42.24-8.533-25.6-18.347-53.76-47.787-79.787-63.573-90.027-66.987-90.453-18.773-61.867 16.64 32.427 40.107 75.52 101.12 109.653 128.853 74.667 51.2 169.387-17.067 187.307-38.4l1.707-2.56c36.267-32.427 48.213-44.373 64-60.16zM392.96 153.173c-4.693 0-9.387 0-13.653 0-44.8 2.987-87.040 18.773-122.453 46.080s-61.44 64.427-75.52 106.667c-14.080 42.667-14.933 87.893-2.56 130.987s36.693 81.067 71.253 109.653c34.133 28.587 75.947 46.507 120.32 51.2 17.493 1.707 33.28-11.093 34.987-28.587s-11.093-33.28-28.587-34.987c-31.573-3.413-61.44-15.787-85.76-36.267s-41.813-47.787-50.773-78.507c-8.533-30.72-8.107-63.147 2.133-93.44s28.587-56.747 53.76-76.373c25.173-19.627 55.467-30.72 87.467-32.853s63.147 5.547 90.88 21.76c27.733 16.213 49.493 40.107 63.147 69.12s18.347 60.587 13.653 92.16c-2.56 17.493 9.387 33.707 26.88 36.693 17.067 2.56 33.707-9.387 36.693-26.88 6.827-44.373 0-89.173-18.773-129.707-19.2-40.533-49.493-73.813-88.32-96.853-34.56-20.48-73.387-31.147-113.493-31.147zM748.8 811.947c0 36.693-29.867 66.56-66.56 66.56s-66.56-29.867-66.56-66.56 29.867-66.56 66.56-66.56 66.56 29.867 66.56 66.56z" />
<glyph unicode="&#xe94a;" glyph-name="zoom-in" d="M615.987 559.996c0-6.366-2.53-12.467-7.031-16.969-4.497-4.501-10.603-7.031-16.969-7.031h-104v-104c0-6.366-2.53-12.467-7.031-16.969-4.497-4.501-10.603-7.031-16.969-7.031s-12.471 2.53-16.973 7.031c-4.497 4.501-7.027 10.603-7.027 16.969v104h-104c-6.365 0-12.47 2.53-16.971 7.031s-7.029 10.603-7.029 16.969c0 6.366 2.528 12.471 7.029 16.973 4.501 4.497 10.605 7.027 16.971 7.027h104v104c0 6.365 2.53 12.47 7.027 16.971 4.501 4.501 10.607 7.029 16.973 7.029s12.471-2.528 16.969-7.029c4.501-4.501 7.031-10.605 7.031-16.971v-104h104c6.366 0 12.471-2.53 16.969-7.027 4.501-4.501 7.031-10.607 7.031-16.973zM912.93 111.036c-2.227-2.227-4.873-3.994-7.782-5.201-2.914-1.207-6.033-1.826-9.186-1.826-3.149 0-6.272 0.619-9.182 1.826s-5.555 2.974-7.787 5.201l-178.125 178.129c-70.391-61.568-161.954-93.367-255.351-88.687-93.398 4.685-181.321 45.483-245.199 113.779-63.878 68.301-98.711 158.754-97.143 252.254 1.569 93.504 39.416 182.737 105.55 248.855s155.375 103.944 248.879 105.491c93.504 1.547 183.945-33.307 252.228-97.202 68.288-63.894 109.065-151.826 113.724-245.227 4.663-93.397-27.162-184.951-88.747-255.326l178.121-178.121c2.231-2.231 3.998-4.877 5.205-7.787 1.207-2.914 1.826-6.033 1.826-9.186s-0.619-6.272-1.826-9.186c-1.207-2.91-2.974-5.559-5.205-7.787zM775.987 560.013c0 61.707-18.3 122.029-52.582 173.337s-83.008 91.298-140.019 114.913c-57.011 23.614-119.744 29.793-180.267 17.754s-116.115-41.754-159.749-85.388c-43.634-43.634-73.349-99.227-85.388-159.75s-5.86-123.255 17.755-180.266c23.614-57.011 63.604-105.737 114.912-140.019s111.63-52.582 173.338-52.582c82.718 0.094 162.022 32.994 220.514 91.486s91.392 137.796 91.486 220.514z" />
<glyph unicode="&#xe94b;" glyph-name="pause" d="M679.9 213.34v597.32c0 14.080 11.52 25.6 25.6 25.6s25.6-11.52 25.6-25.6v-597.34c0-14.080-11.52-25.6-25.6-25.6s-25.6 11.52-25.6 25.6zM292.9 213.34v597.32c0 14.080 11.52 25.6 25.6 25.6s25.6-11.52 25.6-25.6v-597.34c0-14.080-11.52-25.6-25.6-25.6s-25.6 11.52-25.6 25.6z" />
</font>
</defs>
</svg>
